новый адрес
Мега распродажа FORZA HORIZON 4 ULTIMATE+ВСЕ DLC+ОНЛАЙН всего за 499р. 349 руб. (супер цена). Внимание количество ограничено!!!

iTunes

1+1

iTunes

мы

iTunes

1

iTunes

Чернобыль

iTunes

Ральф против интернета

Лицензия

ПШазам

Лицензия

Игра престолов

Лицензия

30
pack

ВАЖНО

!!Акция!!

Alien_RageХит недели

RePack

Resident Evil 21

ИГРА 18+

pack

RePack

Metro:Exodus

!!Акция!!

Alien_Rage

RePack

fifa19

RePack

Assassins Creed: Odyssey

RePack

NEED FOR SPEED™ PAYBACK

3 сезон

9 сезон

Бесстыжие 9 сезон

Все сериалы

все сериалы на PB.wtf

RePack

FAR CRY 5
Ребята, катастрофически не хватает 1900р. для оплаты серверов за Октябрь (всвязи с блокировками трафик упал в 3 раза), 1-2р., выручайте.
  

Выше неба (Оксана Карас) [2019, Драма, мелодрама, детектив, WEB-DLRip] pb.wtf

Выше неба через торрент pb.wtf

Размер: 746 MB | Добавлен: 3 мес. 2 д. назад | Торрент скачан:81 раз
Скачать  

15-08-2019 05:38 Выше неба Скачать торрент  

Выше неба Год выпуска: 2019
Страна: Россия
Жанр: Драма, мелодрама, детектив
Продолжительность: 01:43:39 | iTunes
Субтитры: отсутствуют

Режиссер: Оксана Карас



В ролях: Таисия Вилкова, Филипп Авдеев, Полина Виторган, Дарья Жовнер, Виктория Толстоганова, Алексей Агранович, Артем Немов, Анастасия Богатырева, Ирина Денисова, Валентин Самохин и др.

Описание: Молодая девушка проводит лето на загородном курорте под бдительным присмотром матери. Там её внимание привлекает парень, прошлое которого окутано тайной. Девушка не догадывается, что после этой встречи её жизнь изменится навсегда, а чувствам будет суждено взлететь выше неба…

Качество: WEB-DLRip
Формат: AVI

Видео: XviD build 73, 720x304 (2.37:1), 24.000 fps, 869 Kbps (0.165 bit/pixel)
Аудио: 48.0 kHz, MP3, 2/0 ch, 128 kbps
скриншот  скриншот  скриншот  скриншот  

General
Complete name : D:\Razdachi\Vyshe.Neba.2019.WEB-DLRip.GeneralFilm.avi
Format : AVI
Format/Info : Audio Video Interleave
File size : 746 MiB
Duration : 1 h 43 min
Overall bit rate : 1 006 kb/s
Writing application : VirtualDubMod 1.5.10.3 | www.virtualdub-fr.org || (build 2550/release)
Writing library : VirtualDubMod build 2550/release

Video
ID : 0
Format : MPEG-4 Visual
Format profile : Advanced Simple@L5
Format settings : BVOP1 / Custom Matrix
Format settings, BVOP : 1
Format settings, QPel : No
Format settings, GMC : No warppoints
Format settings, Matrix : Custom
Codec ID : XVID
Codec ID/Hint : XviD
Duration : 1 h 43 min
Bit rate : 869 kb/s
Width : 720 pixels
Height : 304 pixels
Display aspect ratio : 2.35:1
Frame rate : 24.000 FPS
Color space : YUV
Chroma subsampling : 4:2:0
Bit depth : 8 bits
Scan type : Progressive
Compression mode : Lossy
Bits/(Pixel*Frame) : 0.165
Stream size : 644 MiB (86%)
Writing library : XviD 73

Audio
ID : 1
Format : MPEG Audio
Format version : Version 1
Format profile : Layer 3
Codec ID : 55
Codec ID/Hint : MP3
Duration : 1 h 43 min
Bit rate mode : Constant
Bit rate : 128 kb/s
Channel(s) : 2 channels
Sampling rate : 48.0 kHz
Frame rate : 41.667 FPS (1152 SPF)
Compression mode : Lossy
Stream size : 94.9 MiB (13%)
Alignment : Aligned on interleaves
Interleave, duration : 42 ms (1.00 video frame)
Interleave, preload duratio: 504 ms
Writing library : LAME3.99r
Encoding settings : -m s -V 4 -q 2 -lowpass 17 -b 128

pb.wtf



Скачать Выше неба через торрент http://lostpix.com/thumbs/2019-08/14/edk2y82n1kaindsv7xa0c7ks2.png Скачать фильм Выше неба через торрент бесплантно в хорошем качестве Описание: Молодая девушка проводит лето на загородном курорте под бдительным присмотром матери. Там её внимание привлекает парень, прошлое ... 10 10 4
Торрент: Зарегистрирован [2019-08-15 05:38] · скачан: 81 раз
Статус: √ проверено
Размер: 746 MB
Как cкачать? Как скачать Выше неба через торрент | qTorrent

% Раздел Тема Автор DL S | L
Наши новые фильмы 2018-2019 [ 1.81 GB ] Выше неба [2019 WEB-DLRip-AVC] - ExKinoRay Enigma2010 Скачать
29 | 0
Наши новые фильмы 2018-2019 [ 1.46 GB ] Выше неба [2019 WEB-DLRip] bober100 Скачать
5 | 0
Наши фильмы (HD, WEB-DL 720p, 1080p) [ 3.6 GB ] Выше неба [2019 WEB-DL 1080p] bober100 Скачать
1 | 0
Наши новые фильмы 2012 [ 2.06 GB ] Выше неба / Вышэй за неба [2012 HDTVRip] [Режиссерская версия] bober100 Скачать
1 | 0
Наши сериалы [ 3.03 GB ] Выше неба /Телевизионная версия / 1-8 серии из 8 / Вышэй за неба [2012 Беларусь WEBRip Original] кэп Скачать
1 | 0
Фильмы 2012 [ 2.19 GB ] Выше неба / Вышэй за неба [2012 Беларусь HDTVRip] [Режиссерская версия] -=Cherry=- Скачать
1 | 0
Фильмы 2012 [ 1.43 GB ] Выше неба / Вышэй за неба [2012 DVDRip Оригинал] Яйцеслав Скачать
1 | 0


>> Регистрируемся здесь <<






Отзывы и комментарии о схеме читаем и пишем здесь: ---> Отзывы и комментарии о схеме

Новые благодарочки в телеграм довольных пользователей:
скриншот   скриншот   скриншот   скриншот   скриншот
    Дорогой пользователь! Огромная просьба, поблагодарите релизера, оцените раздачу и оставьте свои комментарий, если Вы скачали Выше неба через торрент бесплатно! Внесите свою лепту в развитие PiratBit!
    Комментировать посты могут только пользователи прошедшие не сложную регистрацию
    Показать сообщения:    

    Выше неба через торрент
    Скачать бесплатно Выше неба
    Выше неба скачать торрент
    Выше неба смотреть онлайн
    Cкачать фильм Выше неба бесплатно
    Выше неба скачать торрент в хорошем качестве
    Выше неба смотреть онлайн бесплатно в хорошем качестве


    Вы не можете начинать темы
    Вы не можете отвечать на сообщения
    Вы не можете редактировать свои сообщения
    Вы не можете удалять свои сообщения
    Вы не можете голосовать в опросах
    Вы не можете прикреплять файлы к сообщениям
    Вы можете скачивать файлы