новый адрес
Ссылка на приватное зеркало всего за 1$. Внимание количество ограничено!!!

iTunes

1+1

iTunes

мы

WEB-DL

1

iTunes

Чернобыль

iTunes

Ральф против интернета

Лицензия

ПШазам

Лицензия

Оно 2

Лицензия

30
pack

Вам бонус

ВАЖНО

!!Акция!!

Alien_RageХит недели

RePack

Resident Evil 21

ИГРА 18+

pack

RePack

jed

!!Акция!!

Alien_Rage

RePack

fifa19

RePack

Assassins Creed: Odyssey

RePack

NEED FOR SPEED™ PAYBACK

3 сезон

9 сезон

Бесстыжие 9 сезон

Все сериалы

все сериалы на PB.wtf

RePack

FAR CRY 5
Ребята, катастрофически не хватает 1900р. для оплаты серверов за Октябрь (всвязи с блокировками трафик упал в 3 раза), 1-2р., выручайте.
  

Побег с Фионой / Saving Flora (Mark Drury Taylor) [2018 г., драма, приключения, семейный, WEB-DLRip, Дубляж "iTunes"] pb.wtf

Побег с Фионой через торрент pb.wtf

Размер: 706 MB | Добавлен: 3 мес. 28 д. назад | Торрент скачан:7 раз
Скачать  

15-08-2019 18:53 Побег с Фионой Скачать торрент  

Побег с Фионой / Saving Flora
Год выпуска: 2018
Страна: США / Dream Factory Group, FJ Productions, Collaborate Films
Жанр: драма, приключения, семейный
Продолжительность: 01:35:24
Перевод: Дубляж (iTunes)

Режиссер: Mark Drury Taylor

rating


В ролях: Дженна Ортега, Мартин Лион, Дэвид Аркетт, Леонор Варела, Гален Ховард, Том Арнольд, Ри Перлман, Гилфорд Адамс, Карлос Рагас, Марс Крейн

Описание: Когда-то большая слониха Фиона умело выполняла сложные трюки, приводя публику в неописуемый восторг. Но теперь, когда силы Фионы ослабли и она перестала удивлять зрителей, владелец цирка решил избавиться от животного. Его 14-летняя дочь Дон решила спасти своего друга и однажды ночью вывела Фиону из цирка на волю. Совершив побег, они отправляются в незабываемое путешествие. Впереди их ждут сотни километров пути по густым лесам, скалистым горам и неистовым рекам, где на каждом шагу их подстерегает опасность...

Качество: WEB-DLRip
Формат: AVI
Видео кодек: XviD
Аудио кодек: MP3
Видео: 640x344 (1.86:1), 23.976 fps, XviD build 50 ~896 kbps avg, 0.17 bit/pixel
Аудио: 48 kHz, MPEG Layer 3, 2 ch, ~128.00 kbps avg
скриншот   скриншот   скриншот   скриншот   скриншот   скриншот   скриншот   скриншот  

Общее
Полное имя : F:\ФИЛЬМЫ\Побег с Фионой.2018.(AMAZON).WEB-DLRip.avi
Формат : AVI
Формат/Информация : Audio Video Interleave
Размер файла : 706 Мбайт
Продолжительность : 1 ч. 35 м.
Общий поток : 1034 Кбит/сек
Программа кодирования : VirtualDubMod 1.5.10.3 | www.virtualdub-fr.org || (build 2550/release)
Библиотека кодирования : VirtualDubMod build 2550/release

Видео
Идентификатор : 0
Формат : MPEG-4 Visual
Профиль формата : Advanced Simple@L5
Настройки формата : BVOP3 / GMC3 / QPel
Параметр BVOP формата : 3
Параметр QPel формата : Да
Параметр GMC формата : 3 точки перехода
Параметр матрицы формата : Default (MPEG)
Идентификатор кодека : XVID
Идентификатор кодека/Подсказка : XviD
Продолжительность : 1 ч. 35 м.
Битрейт : 897 Кбит/сек
Ширина : 640 пикселей
Высота : 344 пикселя
Соотношение сторон : 1,85:1
Частота кадров : 23,976 (24000/1001) кадра/сек
Цветовое пространство : YUV
Субдискретизация насыщенности : 4:2:0
Битовая глубина : 8 бит
Тип развёртки : Прогрессивная
Метод сжатия : С потерями
Бит/(Пиксели*Кадры) : 0.170
Размер потока : 612 Мбайт (87%)
Библиотека кодирования : XviD 1.2.1 (UTC 2008-12-04)

Аудио
Идентификатор : 1
Формат : MPEG Audio
Версия формата : Version 1
Профиль формата : Layer 3
Настройки формата : Joint stereo
Идентификатор кодека : 55
Идентификатор кодека/Подсказка : MP3
Продолжительность : 1 ч. 35 м.
Вид битрейта : Постоянный
Битрейт : 128 Кбит/сек
Каналы : 2 канала
Частота : 48,0 КГц
Частота кадров : 41,667 кадра/сек (1152 SPF)
Метод сжатия : С потерями
Размер потока : 87,3 Мбайт (12%)
Выравнивание : Соединение по промежуткам
Продолжительность промежутка : 42 мс. (1,00 видеокадр)
Время предзагрузки промежутка : 504 мс.
Библиотека кодирования : LAME3.99r
Настройки программы : -m j -V 4 -q 2 -lowpass 17 -b 128

pb.wtf



Скачать Побег с Фионой через торрент http://pic1.kartinco.top/images/12/qkx6v.jpg Скачать фильм Побег с Фионой через торрент бесплантно в хорошем качестве Описание: Когда-то большая слониха Фиона умело выполняла сложные трюки, приводя публику в неописуемый восторг. Но теперь, когда силы Фионы ... 10 10 1
Торрент: Зарегистрирован [2019-08-15 18:53] · скачан: 7 раз
Статус: √ проверено
Размер: 706 MB
Как cкачать? Как скачать Побег с Фионой через торрент | qTorrent

% Раздел Тема Автор DL S | L
Фильмы 2018 [DVDrip, WEB-DLRip, HDrip] (DUB, MVO) [ 1.46 GB ] Побег с Фионой / Saving Flora [2018 BDRip] bober100 Скачать
3 | 0
Фильмы (WEB-DL 720p, 1080p) [ 6.21 GB ] Побег с Фионой / Saving Flora [2018 WEB-DL 1080p ] bober100 Скачать
2 | 0

28-11-2019 20:33  

Отключить всю рекламу на сайте

    Дорогой пользователь! Огромная просьба, поблагодарите релизера, оцените раздачу и оставьте свои комментарий, если Вы скачали Побег с Фионой через торрент бесплатно! Внесите свою лепту в развитие PiratBit!
    Комментировать посты могут только пользователи прошедшие не сложную регистрацию
    Показать сообщения:    

    Побег с Фионой через торрент
    Скачать бесплатно Побег с Фионой
    Побег с Фионой скачать торрент
    Побег с Фионой смотреть онлайн
    Cкачать фильм Побег с Фионой бесплатно
    Побег с Фионой скачать торрент в хорошем качестве
    Побег с Фионой смотреть онлайн бесплатно в хорошем качестве


    Вы не можете начинать темы
    Вы не можете отвечать на сообщения
    Вы не можете редактировать свои сообщения
    Вы не можете удалять свои сообщения
    Вы не можете голосовать в опросах
    Вы не можете прикреплять файлы к сообщениям
    Вы можете скачивать файлы