Ссылка на приватное зеркало нашего сайта всего за 1$. Внимание количество ограничено!!!

2 сезон

iTunes

1 сезон

1

2 сезон

2 сезон

iTunes

1 сезон

RePack

30

Новинка

ВАЖНО

ИГРА 18+

pack

RePack

MK11
pack

Забери бонус

RePack

jed

!!Акция!!

Alien_Rage

RePack

fifa19

RePack

Assassins Creed: Odyssey

RePack

NEED FOR SPEED™ PAYBACK

4 сезон

9 сезон

Бесстыжие 9 сезон

Все сериалы

все сериалы на PB.wtf

RePack

FAR CRY 5
  

Офелия / Ophelia (Клэр Маккарти) [2018, мелодрама, история, WEB-DL 1080p] DUB [iTunes] pb.wtf

Офелия через торрент pb.wtf

Раздают: 1 [ 0 KB/s ]
Размер: 5.81 GB | Добавлен: 1 год 2 мес. назад | Торрент скачан:112 раз
Скачать  

27-07-2019 06:33 Офелия Скачать торрент  

Офелия / Ophelia
Год выпуска: 2018
Страна: Великобритания, США
Жанр: мелодрама, история
Продолжительность: 01:46:18
Перевод: Дублированный | iTunes
Субтитры: Английские

Режиссер: Клэр Маккарти

rating

В ролях: Наоми Уоттс, Дэйзи Ридли, Клайв Оуэн, Том Фелтон, Джордж МакКэй, Дэйзи Хэд, Себастьян де Соуса, Анна Раст, Доминик Мафэм

Описание: Темные времена настали в королевстве. Правитель мертв, а его трон занял самозванец и убийца. Гамлет, законный наследник престола, клянется отомстить за отца. Сердце принца способна смягчить лишь прекрасная Офелия. Ради него она готова оставить двор и пойти против тирана. Но cмогут ли их чувства преодолеть саму смерть?

Качество: WEB-DL 1080p
Формат: MKV

Видео: MPEG-4 AVC, 1920x800, 6801 Kbit/s, 23.976 fps
Аудио #01: 48 kHz, AC3, 5.1, 384 Kbps | iTunes | RUS |
Аудио #02: 48 kHz, E-AC3, 5.1, 640 Kbps | Оригинал | ENG |
скриншот  скриншот  скриншот  скриншот  скриншот  

General
Unique ID : 242824776323800929311738865055507422492 (0xB6AE59CDC62D95965FBB4FF987941D1C)
Complete name : D:Video111Ophelia.2018.AMZN.WEB-DL.1080p.seleZen.mkv
Format : Matroska
Format version : Version 4
File size : 5.81 GiB
Duration : 1 h 46 min
Overall bit rate : 7 828 kb/s
Movie name : Ophelia 2018 from селезень
Encoded date : UTC 2019-09-19 21:53:32
Writing application : mkvmerge v22.0.0 ('At The End Of The World') 64-bit
Writing library : libebml v1.3.5 + libmatroska v1.4.8

Video
ID : 1
Format : AVC
Format/Info : Advanced Video Codec
Format profile : High@L4
Format settings : CABAC / 4 Ref Frames
Format settings, CABAC : Yes
Format settings, Reference : 4 frames
Codec ID : V_MPEG4/ISO/AVC
Duration : 1 h 46 min
Bit rate mode : Constant
Bit rate : 6 801 kb/s
Nominal bit rate : 10 000 kb/s
Width : 1 920 pixels
Height : 800 pixels
Display aspect ratio : 2.40:1
Frame rate mode : Constant
Frame rate : 23.976 (24000/1001) FPS
Color space : YUV
Chroma subsampling : 4:2:0
Bit depth : 8 bits
Scan type : Progressive
Bits/(Pixel*Frame) : 0.185
Stream size : 5.05 GiB (87%)
Language : English
Default : Yes
Forced : No
Color range : Limited
Color primaries : BT.709
Transfer characteristics : BT.709
Matrix coefficients : BT.709

Audio #1
ID : 2
Format : AC-3
Format/Info : Audio Coding 3
Commercial name : Dolby Digital
Codec ID : A_AC3
Duration : 1 h 46 min
Bit rate mode : Constant
Bit rate : 384 kb/s
Channel(s) : 6 channels
Channel layout : L R C LFE Ls Rs
Sampling rate : 48.0 kHz
Frame rate : 31.250 FPS (1536 SPF)
Bit depth : 16 bits
Compression mode : Lossy
Stream size : 292 MiB (5%)
Title : iTunes
Language : Russian
Service kind : Complete Main
Default : Yes
Forced : Yes

Audio #2
ID : 3
Format : E-AC-3
Format/Info : Enhanced AC-3
Commercial name : Dolby Digital Plus
Codec ID : A_EAC3
Duration : 1 h 46 min
Bit rate mode : Constant
Bit rate : 640 kb/s
Channel(s) : 6 channels
Channel layout : L R C LFE Ls Rs
Sampling rate : 48.0 kHz
Frame rate : 31.250 FPS (1536 SPF)
Compression mode : Lossy
Stream size : 487 MiB (8%)
Title : Original
Language : English
Service kind : Complete Main
Default : No
Forced : No

Text #1
ID : 4
Format : UTF-8
Codec ID : S_TEXT/UTF8
Codec ID/Info : UTF-8 Plain Text
Duration : 1 h 43 min
Bit rate : 43 b/s
Count of elements : 1164
Stream size : 33.3 KiB (0%)
Title : Full
Language : English
Default : No
Forced : No

Text #2
ID : 5
Format : UTF-8
Codec ID : S_TEXT/UTF8
Codec ID/Info : UTF-8 Plain Text
Duration : 1 h 45 min
Bit rate : 48 b/s
Count of elements : 1470
Stream size : 37.9 KiB (0%)
Title : SDH
Language : English
Default : No
Forced : No

pb.wtf



Скачать Офелия через торрент https://img16.lostpic.net/2019/09/19/8e2e66a82d14efcb5e732b3805ac0c85.jpg Скачать фильм Офелия через торрент бесплантно в хорошем качестве Описание: Темные времена настали в королевстве. Правитель мертв, а его трон занял самозванец и убийца. Гамлет, законный наследник престола, ... 10 10 11
Торрент: Зарегистрирован [2019-09-20 01:44] · скачан: 112 раз
Статус: √ проверено
Размер: 5.81 GB
Как cкачать? Как скачать Офелия через торрент | qTorrent

% Раздел Тема Автор DL S | L
Фильмы 2018 [DVDrip, WEB-DLRip, HDrip] (DUB, MVO) [ 746 MB ] Офелия / Ophelia [2019 Мело история BDRip-AVC] - OlLanDGroup Skandar2019 Скачать
1 | 0
Фильмы 2018 [DVDrip, WEB-DLRip, HDrip] (DUB, MVO) [ 2.18 GB ] Офелия / Ophelia [2018 история BDRip ] PsYcho Скачать
1 | 0
Фильмы (WEB-DL 720p, 1080p) [ 3.27 GB ] Офелия / Ophelia [2018 история WEB-DL 720p] bober100 Скачать
1 | 0
Фильмы 2018 [DVDrip, WEB-DLRip, HDrip] (DUB, MVO) [ 1.46 GB ] Офелия / Ophelia [2018 история WEB-DLRip] bober100 Скачать
1 | 0
Фильмы (WEB-DL 720p, 1080p) [ 6 GB ] Офелия / Ophelia [2018 Мело история WEB-DL 1080p] [MVO] killermax2013 Скачать
1 | 0

28-11-2019 20:33  

Отключить всю рекламу на сайте

    Дорогой пользователь! Огромная просьба, поблагодарите релизера, оцените раздачу и оставьте свои комментарий, если Вы скачали Офелия через торрент бесплатно! Внесите свою лепту в развитие PiratBit!
    Комментировать посты могут только пользователи прошедшие не сложную регистрацию
    Показать сообщения:    

    Офелия через торрент
    Скачать бесплатно Офелия
    Офелия скачать торрент
    Офелия смотреть онлайн
    Cкачать фильм Офелия бесплатно
    Офелия скачать торрент в хорошем качестве
    Офелия смотреть онлайн бесплатно в хорошем качестве


    Вы не можете начинать темы
    Вы не можете отвечать на сообщения
    Вы не можете редактировать свои сообщения
    Вы не можете удалять свои сообщения
    Вы не можете голосовать в опросах
    Вы не можете прикреплять файлы к сообщениям
    Вы можете скачивать файлы