новый адрес
Ссылка на приватное зеркало всего за 1$. Внимание количество ограничено!!!

iTunes

1+1

iTunes

мы

WEB-DL

1

iTunes

Чернобыль

iTunes

Ральф против интернета

Лицензия

ПШазам

Лицензия

Оно 2

Лицензия

30
pack

Вам бонус

ВАЖНО

!!Акция!!

Alien_RageХит недели

RePack

Resident Evil 21

ИГРА 18+

pack

RePack

jed

!!Акция!!

Alien_Rage

RePack

fifa19

RePack

Assassins Creed: Odyssey

RePack

NEED FOR SPEED™ PAYBACK

3 сезон

9 сезон

Бесстыжие 9 сезон

Все сериалы

все сериалы на PB.wtf

RePack

FAR CRY 5
Ребята, катастрофически не хватает 1900р. для оплаты серверов за Октябрь (всвязи с блокировками трафик упал в 3 раза), 1-2р., выручайте.
  

Теперь пусть уходит (Сергей Алексеев) [1963, СССР, драма, SATRip от AVP Studio] pb.wtf

Теперь пусть уходит через торрент pb.wtf

Раздают: 1 [ 0 KB/s ] Качают: 1 [ 0 KB/s ]
Размер: 1.46 GB | Добавлен: 3 мес. 24 д. назад | Торрент скачан:4 раза
Скачать  

16-08-2019 18:07 Теперь пусть уходит Скачать торрент  

Теперь пусть уходит
Страна: СССР
Производство: "Мосфильм" по заказу Гостелерадио СССР

Жанр: драма
Год выпуска: 1963
Продолжительность: 01:51:23

Перевод: Не требуется
Cубтитры: нет
Оригинальная аудиодорожка: русский

Режиссер: Сергей Алексеев

В ролях:
ЛЮрий (Георгий) Кольцов, Владлен Давыдов, Ирина Гошева, Нина Гуляева, Игорь Ясулович, Сергей Блинников, Анна Коломийцева, Вячеслав Шалевич, Владимир Муравьёв, Павел Массальский, Анастасия Георгиевская, Кира Головко, Владимир Белокуров, Пётр Кудлай, Роман Фертман, Михаил Кононов, Людмила Сухолинская...
Об актёрах подробней

Описание:
Действие фильма происходит в Англии. Старый и больной художник Саймонд Кендл, спасаясь от настойчивых притязаний своих детей на оставшиеся у него картины и рисунки, едет с внучкой Фелисити в другой город к другу. Но по дороге художник заболевает и оказывается в гостинице на небольшой станции. Фелисити и Стэн, сын хозяина гостиницы, разыскивают попавшие на другую станцию ящики с картинами Саймонда. Перед смертью художник, тронутый искренним вниманием Фелисити и Стэна, завещает им всю свою коллекцию.

Исходник: DVB
Качество видео: SATRip
Формат видео: AVI

Видео: 704x528 (4:3), 25,000 кадров/сек, XviD ~ 1675 kbps avg, 0.180 bit/pixel
Аудио: 48 kHz, Dolby Digital AC3 2.0, 192 kbps

Раздача от:
Общее
Полное имя : Teper.pust.uhodit.1963.SATRip_[New-team]_by_AVP_Studio.avi
Формат : AVI
Формат/Информация : Audio Video Interleave
Размер файла : 1,46 Гбайт
Продолжительность : 1 ч. 51 м.
Общий поток : 1877 Кбит/сек
Программа кодирования : VirtualDubMod 1.5.10.3 | www.virtualdub-fr.org || (build 2550/release)
Библиотека кодирования : VirtualDubMod build 2550/release

Видео
Идентификатор : 0
Формат : MPEG-4 Visual
Профиль формата : Advanced Simple@L5
Настройки формата : BVOP1 / Custom Matrix
Параметр BVOP формата : 1
Параметр QPel формата : Нет
Параметр GMC формата : Без точки перехода
Параметр матрицы формата : Выборочная
Идентификатор кодека : XVID
Идентификатор кодека/Подсказка : XviD
Продолжительность : 1 ч. 51 м.
Битрейт : 1675 Кбит/сек
Ширина : 704 пикселя
Высота : 528 пикселей
Соотношение сторон : 4:3
Частота кадров : 25,000 кадров/сек
Цветовое пространство : YUV
Субдискретизация насыщенности : 4:2:0
Битовая глубина : 8 бит
Тип развёртки : Прогрессивная
Метод сжатия : С потерями
Бит/(Пиксели*Кадры) : 0.180
Размер потока : 1,30 Гбайт (89%)
Библиотека кодирования : XviD 73

Аудио
Идентификатор : 1
Формат : AC-3
Формат/Информация : Audio Coding 3
Коммерческое название : Dolby Digital
Идентификатор кодека : 2000
Продолжительность : 1 ч. 51 м.
Вид битрейта : Постоянный
Битрейт : 192 Кбит/сек
Каналы : 2 канала
ChannelLayout : L R
Частота : 48,0 КГц
Частота кадров : 31,250 кадров/сек (1536 SPF)
Битовая глубина : 16 бит
Метод сжатия : С потерями
Размер потока : 153 Мбайт (10%)
Выравнивание : Разделение по промежуткам
Продолжительность промежутка : 40 мс. (1,00 видеокадр)
Время предзагрузки промежутка : 500 мс.
pb.wtf



Скачать Теперь пусть уходит через торрент http://picplus.ru/img/1908/16/c87e09df.png Скачать фильм Теперь пусть уходит через торрент бесплантно в хорошем качестве Описание:Действие фильма происходит в Англии. Старый и больной художник Саймонд Кендл, спасаясь от настойчивых притязаний своих детей на ... 10 10 2
Торрент: Зарегистрирован [2019-08-16 18:07] · скачан: 4 раз
Статус: √ проверено
Размер: 1.46 GB
Как cкачать? Как скачать Теперь пусть уходит через торрент | qTorrent

% Раздел Тема Автор DL S | L
Кино СССР [ 1.46 GB ] Теперь пусть уходит [1963 СССР SATRip-AVC от AVP Studio] AVP Studio Скачать
2 | 0

28-11-2019 20:33  

Отключить всю рекламу на сайте

    Дорогой пользователь! Огромная просьба, поблагодарите релизера, оцените раздачу и оставьте свои комментарий, если Вы скачали Теперь пусть уходит через торрент бесплатно! Внесите свою лепту в развитие PiratBit!
    Комментировать посты могут только пользователи прошедшие не сложную регистрацию
    Показать сообщения:    

    Теперь пусть уходит через торрент
    Скачать бесплатно Теперь пусть уходит
    Теперь пусть уходит скачать торрент
    Теперь пусть уходит смотреть онлайн
    Cкачать фильм Теперь пусть уходит бесплатно
    Теперь пусть уходит скачать торрент в хорошем качестве
    Теперь пусть уходит смотреть онлайн бесплатно в хорошем качестве


    Вы не можете начинать темы
    Вы не можете отвечать на сообщения
    Вы не можете редактировать свои сообщения
    Вы не можете удалять свои сообщения
    Вы не можете голосовать в опросах
    Вы не можете прикреплять файлы к сообщениям
    Вы можете скачивать файлы