новый адрес
Ссылка на приватное зеркало всего за 1$. Внимание количество ограничено!!!

iTunes

1+1

iTunes

мы

iTunes

1

iTunes

Чернобыль

iTunes

Ральф против интернета

Лицензия

ПШазам

Лицензия

Оно 2

Лицензия

30
pack

Вам бонус

ВАЖНО

!!Акция!!

Alien_RageХит недели

RePack

Resident Evil 21

ИГРА 18+

pack

RePack

jed

!!Акция!!

Alien_Rage

RePack

fifa19

RePack

Assassins Creed: Odyssey

RePack

NEED FOR SPEED™ PAYBACK

3 сезон

9 сезон

Бесстыжие 9 сезон

Все сериалы

все сериалы на PB.wtf

RePack

FAR CRY 5
Ребята, катастрофически не хватает 1900р. для оплаты серверов за Октябрь (всвязи с блокировками трафик упал в 3 раза), 1-2р., выручайте.
  

Незнакомцы в поезде / Strangers on a Train (Альфред Хичкок) [1951, фильм-нуар, триллер, криминал, BDRip 720p by msltel] 4 x MVO, 2 x AVO pb.wtf

Незнакомцы в поезде через торрент pb.wtf

Размер: 4.22 GB | Добавлен: 3 мес. 20 д. назад | Торрент скачан:6 раз
Скачать  

17-08-2019 06:34 Незнакомцы в поезде Скачать торрент  

Название: Незнакомцы в поезде
Оригинальное название: Strangers on a Train
Год выпуска: 1951
Страна: США
Жанр: фильм-нуар, триллер, криминал
Продолжительность: 01:40:48
Перевод: профессиональный многоголосый, авторский

Режиссер: Альфред Хичкок
В ролях: Фарли Грейнджер, Рут Роман, Роберт Уокер ст., Лео Г. Кэррол, Патриция Хичкок, Кейси Роджерс, Мэрион Лорн, Джонатан Хейл, Ховард Ст. Джон, Джон Браун, Норма Варден, Роберт Гист, Джоэл Аллен, Мюррэй Элпер, Моня Андре, Брукс Бенедикт, Эл Бридж, Джон Батлер, Леонард Кэри, Эдвард Кларк

О фильме: Невероятные события начинают происходить в жизни звезды тенниса Гая Хэйнса после неожиданной встречи в поезде с обаятельным незнакомцем Бруно. До этой встречи молодые люди имели разные, но серьёзные причины чувствовать себя несчастными. Решение личных проблем двух случайных попутчиков состоит из небольшого обмена услугами: «Я убью для тебя, а ты убьешь для меня»... Фильм по мотивам романа Патриции Хайсмит "Случайные попутчики" (Strangers on a Train), 1950 г.



Качество: BDRip 720p
Формат: MKV
Видео: MPEG-4 AVC, 4649 Кбит/с, 982x720
Аудио 1: русский, AC3, 192 kbps, 1 ch, 48 kHz [закадровый многоголосый, Film Prestige]
Аудио 2: русский, AC3, 192 kbps, 2 ch, 48 kHz [закадровый многоголосый, DVD Магия]
Аудио 3: русский, AC3, 192 kbps, 2 ch, 48 kHz [закадровый многоголосый, DVD Classic]
Аудио 4: русский, AC3, 192 kbps, 2 ch, 48 kHz [закадровый многоголосый, Варус Видео / Светла]
Аудио 5: русский, AC3, 192 kbps, 2 ch, 48 kHz [авторский, Пётр Карцев / Деваль Видео]
Аудио 6: русский, AC3, 192 kbps, 1 ch, 48 kHz [авторский, Сергей Кузнецов]
Аудио 7: английский, AC3, 192 kbps, 1 ch, 48 kHz [оригинал]
Субтитры 1: русские
Субтитры 2: английские
Главы/чаптеры
Общее
Уникальный идентификатор : 189445610416472569888591385062041708103 (0x8E85E5BB9294054B9A9AD20570F7E647)
Полное имя : D:\Video\Незнакомцы в поезде.1951.BDRip 720p by msltel.mkv
Формат : Matroska
Версия формата : Version 4
Размер файла : 4,22 Гбайт
Продолжительность : 1 ч. 40 м.
Общий поток : 5997 Кбит/сек
Название фильма : Rip by msltel
Дата кодирования : UTC 2019-08-17 02:20:02
Программа кодирования : mkvmerge v8.2.0 ('World of Adventure') 64bit
Библиотека кодирования : libebml v1.3.1 + libmatroska v1.4.2

Видео
Идентификатор : 1
Формат : AVC
Формат/Информация : Advanced Video Codec
Профиль формата : High@L4.1
Настройки формата : CABAC / 9 Ref Frames
Параметр CABAC формата : Да
Параметр RefFrames формата : 9 кадров
Идентификатор кодека : V_MPEG4/ISO/AVC
Продолжительность : 1 ч. 40 м.
Битрейт : 4649 Кбит/сек
Ширина : 982 пикселя
Высота : 720 пикселей
Соотношение сторон : 4:3
Режим частоты кадров : Постоянный
Частота кадров : 23,976 (24000/1001) кадра/сек
Цветовое пространство : YUV
Субдискретизация насыщенности : 4:2:0
Битовая глубина : 8 бит
Тип развёртки : Прогрессивная
Бит/(Пиксели*Кадры) : 0.274
Размер потока : 3,27 Гбайт (78%)
Библиотека кодирования : x264 core 157 r2935 545de2f
Настройки программы : cabac=1 / ref=9 / deblock=1:-2:-2 / analyse=0x3:0x113 / me=umh / subme=11 / psy=1 / psy_rd=1.00:0.15 / mixed_ref=1 / me_range=32 / chroma_me=1 / trellis=2 / 8x8dct=1 / cqm=0 / deadzone=21,11 / fast_pskip=0 / chroma_qp_offset=-3 / threads=6 / lookahead_threads=1 / sliced_threads=0 / nr=0 / decimate=1 / interlaced=0 / bluray_compat=0 / constrained_intra=0 / bframes=9 / b_pyramid=2 / b_adapt=2 / b_bias=0 / direct=1 / weightb=1 / open_gop=0 / weightp=2 / keyint=230 / keyint_min=23 / scenecut=40 / intra_refresh=0 / rc_lookahead=40 / rc=crf / mbtree=1 / crf=19.0 / qcomp=0.60 / qpmin=0 / qpmax=69 / qpstep=4 / vbv_maxrate=50000 / vbv_bufsize=62500 / crf_max=0.0 / nal_hrd=none / filler=0 / ip_ratio=1.40 / aq=1:1.00
Язык : English
Default : Да
Forced : Нет

Аудио #1
Идентификатор : 2
Формат : AC-3
Формат/Информация : Audio Coding 3
Коммерческое название : Dolby Digital
Идентификатор кодека : A_AC3
Продолжительность : 1 ч. 40 м.
Вид битрейта : Постоянный
Битрейт : 192 Кбит/сек
Каналы : 1 канал
ChannelLayout : C
Частота : 48,0 КГц
Частота кадров : 31,250 кадров/сек (1536 SPF)
Битовая глубина : 16 бит
Метод сжатия : С потерями
Размер потока : 138 Мбайт (3%)
Заголовок : MVO Film Prestige
Язык : Russian
ServiceKind/String : Complete Main
Default : Да
Forced : Нет

Аудио #2
Идентификатор : 3
Формат : AC-3
Формат/Информация : Audio Coding 3
Коммерческое название : Dolby Digital
Идентификатор кодека : A_AC3
Продолжительность : 1 ч. 40 м.
Вид битрейта : Постоянный
Битрейт : 192 Кбит/сек
Каналы : 2 канала
ChannelLayout : L R
Частота : 48,0 КГц
Частота кадров : 31,250 кадров/сек (1536 SPF)
Битовая глубина : 16 бит
Метод сжатия : С потерями
Размер потока : 138 Мбайт (3%)
Заголовок : MVO DVD Магия
Язык : Russian
ServiceKind/String : Complete Main
Default : Нет
Forced : Нет

Аудио #3
Идентификатор : 4
Формат : AC-3
Формат/Информация : Audio Coding 3
Коммерческое название : Dolby Digital
Идентификатор кодека : A_AC3
Продолжительность : 1 ч. 40 м.
Вид битрейта : Постоянный
Битрейт : 192 Кбит/сек
Каналы : 2 канала
ChannelLayout : L R
Частота : 48,0 КГц
Частота кадров : 31,250 кадров/сек (1536 SPF)
Битовая глубина : 16 бит
Метод сжатия : С потерями
Размер потока : 138 Мбайт (3%)
Заголовок : MVO DVD Classic
Язык : Russian
ServiceKind/String : Complete Main
Default : Нет
Forced : Нет

Аудио #4
Идентификатор : 5
Формат : AC-3
Формат/Информация : Audio Coding 3
Коммерческое название : Dolby Digital
Идентификатор кодека : A_AC3
Продолжительность : 1 ч. 40 м.
Вид битрейта : Постоянный
Битрейт : 192 Кбит/сек
Каналы : 2 канала
ChannelLayout : L R
Частота : 48,0 КГц
Частота кадров : 31,250 кадров/сек (1536 SPF)
Битовая глубина : 16 бит
Метод сжатия : С потерями
Размер потока : 138 Мбайт (3%)
Заголовок : MVO Варус Видео / Светла
Язык : Russian
ServiceKind/String : Complete Main
Default : Нет
Forced : Нет

Аудио #5
Идентификатор : 6
Формат : AC-3
Формат/Информация : Audio Coding 3
Коммерческое название : Dolby Digital
Идентификатор кодека : A_AC3
Продолжительность : 1 ч. 40 м.
Вид битрейта : Постоянный
Битрейт : 192 Кбит/сек
Каналы : 2 канала
ChannelLayout : L R
Частота : 48,0 КГц
Частота кадров : 31,250 кадров/сек (1536 SPF)
Битовая глубина : 16 бит
Метод сжатия : С потерями
Размер потока : 138 Мбайт (3%)
Заголовок : Пётр Карцев / Деваль Видео
Язык : Russian
ServiceKind/String : Complete Main
Default : Нет
Forced : Нет

Аудио #6
Идентификатор : 7
Формат : AC-3
Формат/Информация : Audio Coding 3
Коммерческое название : Dolby Digital
Идентификатор кодека : A_AC3
Продолжительность : 1 ч. 40 м.
Вид битрейта : Постоянный
Битрейт : 192 Кбит/сек
Каналы : 1 канал
ChannelLayout : C
Частота : 48,0 КГц
Частота кадров : 31,250 кадров/сек (1536 SPF)
Битовая глубина : 16 бит
Метод сжатия : С потерями
Размер потока : 138 Мбайт (3%)
Заголовок : Сергей Кузнецов
Язык : Russian
ServiceKind/String : Complete Main
Default : Нет
Forced : Нет

Аудио #7
Идентификатор : 8
Формат : AC-3
Формат/Информация : Audio Coding 3
Коммерческое название : Dolby Digital
Идентификатор кодека : A_AC3
Продолжительность : 1 ч. 40 м.
Вид битрейта : Постоянный
Битрейт : 192 Кбит/сек
Каналы : 1 канал
ChannelLayout : C
Частота : 48,0 КГц
Частота кадров : 31,250 кадров/сек (1536 SPF)
Битовая глубина : 16 бит
Метод сжатия : С потерями
Размер потока : 138 Мбайт (3%)
Заголовок : original
Язык : English
ServiceKind/String : Complete Main
Default : Нет
Forced : Нет

Текст #1
Идентификатор : 9
Формат : UTF-8
Идентификатор кодека : S_TEXT/UTF8
Идентификатор кодека/Информация : UTF-8 Plain Text
Продолжительность : 1 ч. 40 м.
Битрейт : 86 бит/сек
ElementCount : 1052
Размер потока : 63,6 Кбайт (0%)
Заголовок : русские
Язык : Russian
Default : Нет
Forced : Нет

Текст #2
Идентификатор : 10
Формат : UTF-8
Идентификатор кодека : S_TEXT/UTF8
Идентификатор кодека/Информация : UTF-8 Plain Text
Продолжительность : 1 ч. 39 м.
Битрейт : 58 бит/сек
ElementCount : 1122
Размер потока : 42,2 Кбайт (0%)
Заголовок : английские
Язык : English
Default : Нет
Forced : Нет

Меню
00:00:00.000 : en:00:00:00.000
00:02:25.145 : en:00:02:25.145
00:05:55.688 : en:00:05:55.688
00:08:00.104 : en:00:08:00.104
00:10:28.544 : en:00:10:28.544
00:10:55.529 : en:00:10:55.529
00:15:20.419 : en:00:15:20.419
00:18:42.955 : en:00:18:42.955
00:23:57.936 : en:00:23:57.936
00:26:21.746 : en:00:26:21.746
00:28:40.135 : en:00:28:40.135
00:29:41.029 : en:00:29:41.029
00:34:21.642 : en:00:34:21.642
00:39:59.688 : en:00:39:59.688
00:44:34.922 : en:00:44:34.922
00:47:43.485 : en:00:47:43.485
00:51:02.559 : en:00:51:02.559
00:54:10.330 : en:00:54:10.330
00:58:07.984 : en:00:58:07.984
01:00:50.646 : en:01:00:50.646
01:03:39.148 : en:01:03:39.148
01:07:17.783 : en:01:07:17.783
01:11:17.064 : en:01:11:17.064
01:14:24.042 : en:01:14:24.042
01:18:33.458 : en:01:18:33.458
01:22:03.960 : en:01:22:03.960
01:25:49.686 : en:01:25:49.686
01:28:28.720 : en:01:28:28.720
01:31:25.771 : en:01:31:25.771
01:33:33.190 : en:01:33:33.190
01:35:33.519 : en:01:35:33.519
01:37:45.943 : en:01:37:45.943
01:39:45.896 : en:01:39:45.896
pb.wtf



Скачать Незнакомцы в поезде через торрент https://c.radikal.ru/c11/1908/b0/2fad0993ab6d.jpg Скачать фильм Незнакомцы в поезде через торрент бесплантно в хорошем качестве О фильме: Невероятные события начинают происходить в жизни звезды тенниса Гая Хэйнса после неожиданной встречи в поезде с обаятельным ... 5 10 1
Info! Золотая раздача, скачанное не засчитывается.
Торрент: Зарегистрирован [2019-08-17 06:34] · скачан: 6 раз
Статус: √ проверено
Размер: 4.22 GB
Как cкачать? Как скачать Незнакомцы в поезде через торрент | qTorrent

% Раздел Тема Автор DL S | L
Арт-хаус и авторское кино [ 10.42 GB ] Незнакомцы в поезде / Strangers on a Train [1951 фильм-нуар BDRip 1080p by msltel] 4 x MVO 2 x AVO msltel Скачать
1 | 0
Отключить всю рекламу на сайте

17-08-2019 06:37 Незнакомцы в поезде Скачать торрент  

Топик был перенесен из форума Фильмы [HD 720p, 1080p] (Хороший звук DUB, MVO) в форум Арт-хаус и авторское кино


bober100pb.wtf



    Дорогой пользователь! Огромная просьба, поблагодарите релизера, оцените раздачу и оставьте свои комментарий, если Вы скачали Незнакомцы в поезде через торрент бесплатно! Внесите свою лепту в развитие PiratBit!
    Комментировать посты могут только пользователи прошедшие не сложную регистрацию
    Показать сообщения:    

    Незнакомцы в поезде через торрент
    Скачать бесплатно Незнакомцы в поезде
    Незнакомцы в поезде скачать торрент
    Незнакомцы в поезде смотреть онлайн
    Cкачать фильм Незнакомцы в поезде бесплатно
    Незнакомцы в поезде скачать торрент в хорошем качестве
    Незнакомцы в поезде смотреть онлайн бесплатно в хорошем качестве


    Вы не можете начинать темы
    Вы не можете отвечать на сообщения
    Вы не можете редактировать свои сообщения
    Вы не можете удалять свои сообщения
    Вы не можете голосовать в опросах
    Вы не можете прикреплять файлы к сообщениям
    Вы можете скачивать файлы