Ссылка на приватное зеркало нашего сайта всего за 1$. Внимание количество ограничено!!!

2 сезон

iTunes

1 сезон

1

iTunes

iTunes

iTunes

1 сезон

RePack

30

ИГРА 18+

pack

ВАЖНО

!!Акция!!

Alien_RageХит недели

RePack

MK11
pack

Забери бонус

RePack

jed

!!Акция!!

Alien_Rage

RePack

fifa19

RePack

Assassins Creed: Odyssey

RePack

NEED FOR SPEED™ PAYBACK

4 сезон

9 сезон

Бесстыжие 9 сезон

Все сериалы

все сериалы на PB.wtf

RePack

FAR CRY 5
  

Сын за отца / Сезон: 1 / Серии: 1-24 из 24 (Резо Гигинеишвили, Леван Когуашвили) [2014, Драма, криминал, WEB-DL 1080p] pb.wtf

Сын за отца через торрент pb.wtf

Размер: 38.18 GB | Добавлен: 1 год 2 мес. назад | Торрент скачан:9 раз
Скачать  

17-08-2019 07:30 Сын за отца Скачать торрент  

Сын за отца
Год выпуска: 2014
Страна: Россия, Небо, Yellow, Black & White
Жанр: Драма, криминал
Продолжительность: ~ 00:44:00
Субтитры: отсутствуют

Режиссер: Резо Гигинеишвили, Леван Когуашвили

rating

В ролях:

Антон Макарский (Вадим Ильин), Алексей Горбунов (Георгий Теодоради), Татьяна Лютаева (Галина), Денис Никифоров (Иван), Светлана Устинова (Вера), Марина Коняшкина, Александр Барановский, Валентин Терехов, Анна Халилулина, Виталий Кищенко, Мартиньш Вилсонс, Сесиль Плеже
Описание: Вадим — молодой человек строгих нравов и чётких жизненных правил. Он обожает свою невесту, мать и отца, любит и умеет делать свою работу. Вадим хорошо понимает, чего хочет в жизни и знает, как добиться поставленной цели. Однако резкий поворот судьбы в одночасье ломает весь выстроенный вокруг Вадима мир, открыв глаза на его истинное происхождение и вынуждая пересмотреть свои жизненные планы. После трагической смерти отца герой узнаёт, что на самом деле его усыновили, а настоящим биологическим отцом Вадима оказывается криминальный авторитет, бандит и убийца — олицетворение всего того, что Вадим считает неприемлемым и недопустимым в своей жизни. Познакомившись с родным отцом и его мировоззрением, герой то и дело оказывается в ситуации, когда ему приходится выбирать между полученными в детстве четкими представлениями о морали и нравственности, и «реальной жизнью», в которой аморальные поступки позволяют кратчайшим путем добиваться «благих целей».

Качество: WEB-DL 1080p
Формат: MKV

Видео: 1920х1080 (16:9), 25 fps, AVC MPEG-4 (x264), High@L4.0 ~ 5000 kbps avg, 0.096 bit/pixel
Аудио: 48 kHz, AC3, 2 ch, ~ 192 kbps avg
скриншот  скриншот  скриншот  скриншот  

Общее
Уникальный идентификатор : 242802851061210786867088863161576289175 (0xB6AA20CE0DE1E2628CBF1E20A44B7397)
Полное имя : F:\Фильмы торренты\Syn.za.ottsa.2014.WEB-DL.(1080p).MediaClub\Syn.za.ottsa.(02.seriya).2014.WEB-DL.(1080p).MediaClub.mkv
Формат : Matroska
Версия формата : Version 2
Размер файла : 1,59 Гбайт
Продолжительность : 44 м.
Общий поток : 5186 Кбит/сек
Название фильма : Syn.za.ottsa.(02.seriya).2014.WEB-DL.(1080p).MediaClub
Дата кодирования : UTC 2014-11-05 15:46:29
Программа кодирования : mkvmerge v5.8.0 ('No Sleep / Pillow') built on Sep 2 2012 15:37:04
Библиотека кодирования : libebml v1.2.3 + libmatroska v1.3.0

Видео
Идентификатор : 1
Формат : AVC
Формат/Информация : Advanced Video Codec
Профиль формата : High@L4.0
Параметр CABAC формата : Да
Параметр ReFrames формата : 4 кадра
Идентификатор кодека : V_MPEG4/ISO/AVC
Продолжительность : 44 м.
Битрейт : 5000 Кбит/сек
Ширина : 1920 пикселей
Высота : 1080 пикселей
Соотношение сторон : 16:9
Режим частоты кадров : Постоянный
Частота кадров : 25,000 кадров/сек
Цветовое пространство : YUV
Субдискретизация насыщенности : 4:2:0
Битовая глубина : 8 бит
Тип развёртки : Прогрессивная
Бит/(Пиксели*Кадры) : 0.096
Размер потока : 1,50 Гбайт (94%)
Библиотека кодирования : x264 core 140
Настройки программы : cabac=1 / ref=3 / deblock=1:0:0 / analyse=0x3:0x113 / me=hex / subme=7 / psy=1 / psy_rd=1.00:0.00 / mixed_ref=1 / me_range=16 / chroma_me=1 / trellis=1 / 8x8dct=1 / cqm=0 / deadzone=21,11 / fast_pskip=1 / chroma_qp_offset=-2 / threads=24 / lookahead_threads=4 / sliced_threads=0 / nr=0 / decimate=1 / interlaced=0 / bluray_compat=0 / constrained_intra=0 / bframes=3 / b_pyramid=2 / b_adapt=1 / b_bias=0 / direct=1 / weightb=1 / open_gop=0 / weightp=2 / keyint=250 / keyint_min=25 / scenecut=40 / intra_refresh=0 / rc_lookahead=40 / rc=abr / mbtree=1 / bitrate=5000 / ratetol=1.0 / qcomp=0.60 / qpmin=0 / qpmax=69 / qpstep=4 / vbv_maxrate=10000 / vbv_bufsize=10000 / nal_hrd=none / filler=0 / ip_ratio=1.40 / aq=1:1.00
Default : Да
Forced : Да

Аудио
Идентификатор : 2
Формат : AC-3
Формат/Информация : Audio Coding 3
Расширение режима : CM (complete main)
Параметр Endianness формата : Big
Идентификатор кодека : A_AC3
Продолжительность : 44 м.
Вид битрейта : Постоянный
Битрейт : 192 Кбит/сек
Каналы : 2 канала
Расположение каналов : Front: L R
Частота : 48,0 КГц
Битовая глубина : 16 бит
Метод сжатия : С потерями
Размер потока : 60,4 Мбайт (4%)
Язык : Russian
Default : Да
Forced : Да

pb.wtf



Скачать Сын за отца через торрент http://i67.fastpic.ru/big/2014/1105/f8/cfe9302bead31b3ca43150cd55c4edf8.jpg Скачать фильм Сын за отца через торрент бесплантно в хорошем качестве Описание: Вадим — молодой человек строгих нравов и чётких жизненных правил. Он обожает свою невесту, мать и отца, любит и умеет делать свою ... 10 10 3
Торрент: Зарегистрирован [2019-08-17 07:30] · скачан: 9 раз
Статус: √ проверено
Размер: 38.18 GB
Как cкачать? Как скачать Сын за отца через торрент | qTorrent

% Раздел Тема Автор DL S | L
Наши сериалы [ 12.87 GB ] Сын за отца / Сезон: 1 / Серии: 1-24 из 24 [2014 WEB-DLRip] bober100 Скачать
1 | 0
Наши сериалы [ 10.6 GB ] Сын за отца / Сезон: 1 / Серии 1-24 из 24 [2014 Россия WEB-DLRip-AVC) GEKADOL Скачать
1 | 0

28-11-2019 20:33  

Отключить всю рекламу на сайте

    Дорогой пользователь! Огромная просьба, поблагодарите релизера, оцените раздачу и оставьте свои комментарий, если Вы скачали Сын за отца через торрент бесплатно! Внесите свою лепту в развитие PiratBit!
    Комментировать посты могут только пользователи прошедшие не сложную регистрацию
    Показать сообщения:    

    Сын за отца через торрент
    Скачать бесплатно Сын за отца
    Сын за отца скачать торрент
    Сын за отца смотреть онлайн
    Cкачать фильм Сын за отца бесплатно
    Сын за отца скачать торрент в хорошем качестве
    Сын за отца смотреть онлайн бесплатно в хорошем качестве


    Вы не можете начинать темы
    Вы не можете отвечать на сообщения
    Вы не можете редактировать свои сообщения
    Вы не можете удалять свои сообщения
    Вы не можете голосовать в опросах
    Вы не можете прикреплять файлы к сообщениям
    Вы можете скачивать файлы