новый адрес
Ссылка на приватное зеркало всего за 1$. Внимание количество ограничено!!!

iTunes

1+1

iTunes

мы

iTunes

1

iTunes

Чернобыль

iTunes

Ральф против интернета

Лицензия

ПШазам

Лицензия

Оно 2

Лицензия

30
pack

Вам бонус

ВАЖНО

!!Акция!!

Alien_RageХит недели

RePack

Resident Evil 21

ИГРА 18+

pack

RePack

jed

!!Акция!!

Alien_Rage

RePack

fifa19

RePack

Assassins Creed: Odyssey

RePack

NEED FOR SPEED™ PAYBACK

3 сезон

9 сезон

Бесстыжие 9 сезон

Все сериалы

все сериалы на PB.wtf

RePack

FAR CRY 5
Ребята, катастрофически не хватает 1900р. для оплаты серверов за Октябрь (всвязи с блокировками трафик упал в 3 раза), 1-2р., выручайте.
  

Слуша-ай! (Мери Анджапаридзе) [1963, СССР, биография, история, SATRip-AVC от AVP Studio] pb.wtf

Слуша-ай! через торрент pb.wtf

Раздают: 4 [ 0 KB/s ]
Размер: 743 MB | Добавлен: 3 мес. 5 д. назад | Торрент скачан:9 раз
Скачать  

17-08-2019 08:49 Слуша-ай! Скачать торрент  

Слуша-ай!
Страна: СССР
Производство: Мосфильм

Жанр: биография, история
Год выпуска: 1963
Продолжительность: 01:03:54

Перевод: Не требуется
Cубтитры: нет
Оригинальная аудиодорожка: русский

Режиссер: Мери Анджапаридзе

В ролях:
Юльен Балмусов, Геннадий Бортников, Светлана Савёлова, Пётр Любешкин, Николай Прокопович, Леонид Кмит, Михаил Поляк, Виталий Ткаченко...
Об актёрах подробней

Описание:
Телефильм по мотивам рассказов Юрия Германа
О начале революционной деятельности Ф. Э. Дзержинского.

Исходник: DVB
Качество видео: SATRip-AVC
Формат видео: MKV

Видео: 704->760x570 (4:3), 25,000 кадров/сек, H264 ~ 1425 kbps avg, 0.142 bit/pixel
Аудио: 48 kHz, Dolby Digital AC3 2.0, 192 kbps

Раздача от:
Общее
Полное имя : Slusha-ay!1963.SATRip-AVC_[New-team]_by_AVP_Studio.mkv
Формат : Matroska
Версия формата : Version 2
Размер файла : 745 Мбайт
Продолжительность : 1 ч. 4 м.
Общий поток : 1619 Кбит/сек
Дата кодирования : UTC 2019-08-12 12:58:48
Программа кодирования : mkvmerge v6.1.0 ('Old Devil') built on Mar 4 2013 09:10:42
Библиотека кодирования : libebml v1.3.0 + libmatroska v1.4.0

Видео
Идентификатор : 1
Формат : AVC
Формат/Информация : Advanced Video Codec
Профиль формата : High@L4.1
Настройки формата : CABAC / 10 Ref Frames
Параметр CABAC формата : Да
Параметр RefFrames формата : 10 кадров
Идентификатор кодека : V_MPEG4/ISO/AVC
Продолжительность : 1 ч. 4 м.
Битрейт : 1425 Кбит/сек
Ширина : 704 пикселя
Высота : 570 пикселей
Соотношение сторон : 4:3
Режим частоты кадров : Постоянный
Частота кадров : 25,000 кадров/сек
Цветовое пространство : YUV
Субдискретизация насыщенности : 4:2:0
Битовая глубина : 8 бит
Тип развёртки : Прогрессивная
Бит/(Пиксели*Кадры) : 0.142
Размер потока : 641 Мбайт (86%)
Библиотека кодирования : x264 core 157 r2932 303c484
Настройки программы : cabac=1 / ref=10 / deblock=1:-2:-1 / analyse=0x3:0x113 / me=umh / subme=10 / psy=1 / psy_rd=1.00:0.00 / mixed_ref=1 / me_range=32 / chroma_me=1 / trellis=2 / 8x8dct=1 / cqm=0 / deadzone=21,11 / fast_pskip=1 / chroma_qp_offset=-2 / threads=6 / lookahead_threads=1 / sliced_threads=0 / nr=0 / decimate=0 / interlaced=0 / bluray_compat=0 / constrained_intra=0 / bframes=8 / b_pyramid=2 / b_adapt=2 / b_bias=0 / direct=3 / weightb=1 / open_gop=0 / weightp=2 / keyint=250 / keyint_min=25 / scenecut=40 / intra_refresh=0 / rc=2pass / mbtree=0 / bitrate=1425 / ratetol=1.0 / qcomp=0.60 / qpmin=0 / qpmax=69 / qpstep=4 / cplxblur=20.0 / qblur=0.5 / ip_ratio=1.40 / pb_ratio=1.30 / aq=1:1.00
Default : Да
Forced : Нет

Аудио
Идентификатор : 2
Формат : AC-3
Формат/Информация : Audio Coding 3
Коммерческое название : Dolby Digital
Идентификатор кодека : A_AC3
Продолжительность : 1 ч. 4 м.
Вид битрейта : Постоянный
Битрейт : 192 Кбит/сек
Каналы : 2 канала
ChannelLayout : L R
Частота : 48,0 КГц
Частота кадров : 31,250 кадров/сек (1536 SPF)
Битовая глубина : 16 бит
Метод сжатия : С потерями
Размер потока : 88,3 Мбайт (12%)
Default : Да
Forced : Нет
pb.wtf



Скачать Слуша-ай! через торрент http://picplus.ru/img/1908/17/71f34978.png Скачать фильм Слуша-ай! через торрент бесплантно в хорошем качестве Описание:Телефильм по мотивам рассказов Юрия ГерманаО начале революционной деятельности Ф. Э. Дзержинского. Исходник: ... 5 10 1
Info! Золотая раздача, скачанное не засчитывается.
Торрент: Зарегистрирован [2019-08-17 08:49] · скачан: 9 раз
Статус: √ проверено
Размер: 743 MB
Как cкачать? Как скачать Слуша-ай! через торрент | qTorrent

% Раздел Тема Автор DL S | L
Кино СССР [ 743 MB ] Слуша-ай! [1963 СССР биография история SATRip от AVP Studio] AVP Studio Скачать
2 | 0
Отечественная Поп музыка (сборники) (mp3) [ 168 MB ] VA - 100 грамм для храбрости 2016 / MP3 / 320 kbps / Pop megatoxa Скачать
1 | 0
Отечественная Поп музыка (mp3) [ 162 MB ] Илья Гусев - Слушай ласковый май 2015 / MP3 / 320 kbps / Pop\Dance\Electronic viktor6343 Скачать
1 | 0
Русское любительское видео [ 46 MB ] Я буду тебя слушаться! Только трахай меня! [201* Homemade Russian Oral Straight. CamRip] Pir@tya2010 Скачать
1 | 0
Сборники отечественного шансона [ 727 MB ] VA - Слушай не тормози! №2 2015 / MP3 / 256 kbps / Шансон den7z8 Скачать
1 | 0
Eurodance, Technopop, Disco (сборники) (mp3) [ 697 MB ] VA - Оп-оп... Послушай поп 2015 / MP3 / 256 kbps / Pop Dance Бумер Скачать
1 | 0
Зарубежная Поп музыка (сборники) (mp3) [ 862 MB ] VA - Слушай дыхание. Европа плюс 2015 / MP3 / 256 kbps / Pop Dance Бумер Скачать
1 | 0
    Дорогой пользователь! Огромная просьба, поблагодарите релизера, оцените раздачу и оставьте свои комментарий, если Вы скачали Слуша-ай! через торрент бесплатно! Внесите свою лепту в развитие PiratBit!
    Комментировать посты могут только пользователи прошедшие не сложную регистрацию
    Показать сообщения:    

    Слуша-ай! через торрент
    Скачать бесплатно Слуша-ай!
    Слуша-ай! скачать торрент
    Слуша-ай! смотреть онлайн
    Cкачать фильм Слуша-ай! бесплатно
    Слуша-ай! скачать торрент в хорошем качестве
    Слуша-ай! смотреть онлайн бесплатно в хорошем качестве


    Вы не можете начинать темы
    Вы не можете отвечать на сообщения
    Вы не можете редактировать свои сообщения
    Вы не можете удалять свои сообщения
    Вы не можете голосовать в опросах
    Вы не можете прикреплять файлы к сообщениям
    Вы можете скачивать файлы