Ссылка на приватное зеркало нашего сайта всего за 1$. Внимание количество ограничено!!!

2 сезон

iTunes

1 сезон

1

iTunes

iTunes

iTunes

1 сезон

RePack

30

ИГРА 18+

pack

ВАЖНО

!!Акция!!

Alien_RageХит недели

RePack

MK11
pack

Забери бонус

RePack

jed

!!Акция!!

Alien_Rage

RePack

fifa19

RePack

Assassins Creed: Odyssey

RePack

NEED FOR SPEED™ PAYBACK

4 сезон

9 сезон

Бесстыжие 9 сезон

Все сериалы

все сериалы на PB.wtf

RePack

FAR CRY 5
  

Серебряный отблеск счастья / Серии: 1-4 из 4 (Александр Грабарь) [2019, Мелодрама, SATRip] pb.wtf

Серебряный отблеск счастья через торрент pb.wtf

Размер: 2.44 GB | Добавлен: 1 год 2 мес. назад | Торрент скачан:22 раза
Скачать  

18-08-2019 02:20 Серебряный отблеск счастья Скачать торрент  

Серебряный отблеск счастья
Год выпуска: 2019
Страна: Россия
Жанр: Мелодрама
Продолжительность: ~ 00:45:00
Перевод: Не требуется
Субтитры: отсутствуют

Режиссер: Александр Грабарь



В ролях: Анна Дианова, Илья Коробко, Артур Сопельник, Алеся Пуховая

Описание: Когда счастье безвозвратно потеряно, оставив после себя лишь слабый отблеск – приходит время отчаяния и необдуманных поступков. Лиза, будущий повар, проходит практику в санатории. Здесь она встречает Матвея, богатого молодого человека. Лиза впервые полюбила и совершенно потеряла голову! Отношения между влюбленными развиваются бурно, пока Лиза не узнает, что у Матвея… есть невеста. Под давлением семьи Матвею приходится вернуться домой, и Лиза остается с разбитым сердцем. Все, что у нее есть на память о Матвее – подаренный им серебряный кулон и тайна, которой они связаны – Лиза ждет ребёнка. Влюбленный в Лизу сосед Григорий предлагает ей пожениться, чтобы не быть матерью-одиночкой. Лиза соглашается, но очень скоро начинает жалеть о своем решении.

Качество: SATRip
Формат: AVI

Видео: XviD, ~ 1800 Кбит/с, 720x400
Аудио: MP3, 2 ch, 128 Кбит/с
скриншот  скриншот  скриншот  скриншот  

Общее
Полное имя : C:\Users\Gosha 72\Downloads\Serebryanyj.otblesk.schastya.SATRip\Serebryanyj.otblesk.schastya.01.SATRip.avi
Формат : AVI
Формат/Информация : Audio Video Interleave
Размер файла : 707 Мбайт
Продолжительность : 51 м. 0 с.
Общий поток : 1938 Кбит/сек
Программа кодирования : VirtualDubMod 1.5.10.3 | www.virtualdub-fr.org || (build 2550/release)
Библиотека кодирования : VirtualDubMod build 2550/release

Видео
Идентификатор : 0
Формат : MPEG-4 Visual
Профиль формата : Advanced Simple@L5
Настройки формата : BVOP2
Параметр BVOP формата : 2
Параметр QPel формата : Нет
Параметр GMC формата : Без точки перехода
Параметр матрицы формата : Default (H.263)
Идентификатор кодека : XVID
Идентификатор кодека/Подсказка : XviD
Продолжительность : 51 м. 0 с.
Битрейт : 1800 Кбит/сек
Ширина : 720 пикселей
Высота : 400 пикселей
Соотношение сторон : 16:9
Частота кадров : 25,000 кадров/сек
Цветовое пространство : YUV
Субдискретизация насыщенности : 4:2:0
Битовая глубина : 8 бит
Тип развёртки : Прогрессивная
Метод сжатия : С потерями
Бит/(Пиксели*Кадры) : 0.250
Размер потока : 657 Мбайт (93%)
Библиотека кодирования : XviD 1.2.1 (UTC 2008-12-04)

Аудио
Идентификатор : 1
Формат : MPEG Audio
Версия формата : Version 1
Профиль формата : Layer 3
Настройки формата : Joint stereo / MS Stereo
Идентификатор кодека : 55
Идентификатор кодека/Подсказка : MP3
Продолжительность : 51 м. 0 с.
Вид битрейта : Постоянный
Битрейт : 128 Кбит/сек
Каналы : 2 канала
Частота : 48,0 КГц
Частота кадров : 41,667 кадра/сек (1152 SPF)
Метод сжатия : С потерями
Размер потока : 46,7 Мбайт (7%)
Выравнивание : Соединение по промежуткам
Продолжительность промежутка : 40 мс. (1,00 видеокадр)
Время предзагрузки промежутка : 504 мс.
Библиотека кодирования : LAME3.99r
Настройки программы : -m j -V 4 -q 9 -lowpass 17 -b 128

pb.wtf



Скачать Серебряный отблеск счастья через торрент https://i90.fastpic.ru/big/2019/0818/eb/83f0ad9fac47301f4e648e94f6bf08eb.jpg Скачать фильм Серебряный отблеск счастья через торрент бесплантно в хорошем качестве Описание: Когда счастье безвозвратно потеряно, оставив после себя лишь слабый отблеск – приходит время отчаяния и необдуманных поступков. ... 10 10 3
Торрент: Зарегистрирован [2019-08-18 02:20] · скачан: 22 раз
Статус: √ проверено
Размер: 2.44 GB
Как cкачать? Как скачать Серебряный отблеск счастья через торрент | qTorrent

28-11-2019 20:33  

Отключить всю рекламу на сайте

    Дорогой пользователь! Огромная просьба, поблагодарите релизера, оцените раздачу и оставьте свои комментарий, если Вы скачали Серебряный отблеск счастья через торрент бесплатно! Внесите свою лепту в развитие PiratBit!
    Комментировать посты могут только пользователи прошедшие не сложную регистрацию
    Показать сообщения:    

    Серебряный отблеск счастья через торрент
    Скачать бесплатно Серебряный отблеск счастья
    Серебряный отблеск счастья скачать торрент
    Серебряный отблеск счастья смотреть онлайн
    Cкачать фильм Серебряный отблеск счастья бесплатно
    Серебряный отблеск счастья скачать торрент в хорошем качестве
    Серебряный отблеск счастья смотреть онлайн бесплатно в хорошем качестве


    Вы не можете начинать темы
    Вы не можете отвечать на сообщения
    Вы не можете редактировать свои сообщения
    Вы не можете удалять свои сообщения
    Вы не можете голосовать в опросах
    Вы не можете прикреплять файлы к сообщениям
    Вы можете скачивать файлы