Ссылка на приватное зеркало всего за 1$. Внимание количество ограничено!!!

iTunes

iTunes

iTunes

1

iTunes

iTunes

iTunes

iTunes

iTunes

30
pack

Новость дня

ВАЖНО

!!Акция!!

Alien_RageХит недели

RePack

Resident Evil 21

ИГРА 18+

pack

RePack

jed

!!Акция!!

Alien_Rage

RePack

fifa19

RePack

Assassins Creed: Odyssey

RePack

NEED FOR SPEED™ PAYBACK

4 сезон

9 сезон

Бесстыжие 9 сезон

Все сериалы

все сериалы на PB.wtf

RePack

FAR CRY 5
  

Балканский рубеж (Андрей Волгин) [2019, боевик, драма, BDRip-AVC] 2x [Лицензия, iTunes] pb.wtf

Балканский рубеж через торрент pb.wtf

Размер: 2.81 GB | Добавлен: 9 мес. назад | Торрент скачан:98 раз
Скачать  

18-08-2019 16:29 Балканский рубеж Скачать торрент  

Балканский рубеж Год выпуска: 2019
Страна: Россия, Сербия
Жанр: боевик, драма
Продолжительность: 02:31:16
Перевод:

Не требуется | ** - Лицензия: Иностранная речь не озвучена (русские форсированные субтитры присутствуют)
Не требуется | *** - iTunes: Полный перевод иностранной речи.

Субтитры: Русские (форс. на надписи и иностранную речь)

Режиссер: Андрей Волгин

rating

В ролях: Антон Пампушный, Гоша Куценко, Милош Бикович, Милена Радулович, Гойко Митич, Равшана Куркова, Дмитрий Фрид, Александар Сречкович, Светлана Чуйкина, Миодраг Радонич

Описание: Югославия. 1999 год. Российская спецгруппа получает приказ взять под контроль аэродром Слатина в Косово и удерживать его до прихода подкрепления. Но этот стратегический объект крайне важен албанскому полевому командиру и натовским генералам. Группа вынуждена принять неравный бой с террористами. К аэродрому устремляются российские миротворцы и силы НАТО. Мир вновь близок к большой войне. Но командиру спецгруппы Андрею Шаталову не до политики: в аэропорту среди заложников его любимая девушка Ясна...

Качество: BDRip-AVC
Формат: MKV

Видео: 1024x426 (2.40:1), 23,976 fps, x264 ~1 825 kbps avg, 0.174 bit/pixel
Аудио#1: 48 kHz, AC3 Dolby Digital, 3/2 (L,C,R,l,r) + LFE ch, ~448.00 kbps avg | RUS (Лицензия) **
Аудио#2: 48 kHz, AC3 Dolby Digital, 3/2 (L,C,R,l,r) + LFE ch, ~384.00 kbps avg | RUS (iTunes) ***
скриншот  скриншот  скриншот  скриншот  скриншот  

Общее
Уникальный идентификатор : 306652613826465448421546952907722455845 (0xE6B32528812ABBC2B7496B26AE1DFB25)
Полное имя : F:OlLanDGroupThe.Balkan.Line.2019.BDRip(AVC).OlLanDGroup.mkv
Формат : Matroska
Версия формата : Version 4 / Version 2
Размер файла : 2,81 Гбайт
Продолжительность : 2 ч. 31 м.
Общий поток : 2658 Кбит/сек
Название фильма : The.Balkan.Line.2019 #TorpedoUK#
Дата кодирования : UTC 2019-08-18 16:08:59
Программа кодирования : mkvmerge v29.0.0 ('Like It Or Not') 64-bit
Библиотека кодирования : libebml v1.3.6 + libmatroska v1.4.9

Видео
Идентификатор : 1
Формат : AVC
Формат/Информация : Advanced Video Codec
Профиль формата : High@L4.1
Параметр CABAC формата : Да
Параметр ReFrames формата : 10 кадров
Идентификатор кодека : V_MPEG4/ISO/AVC
Продолжительность : 2 ч. 31 м.
Битрейт : 1825 Кбит/сек
Ширина : 1024 пикселя
Высота : 426 пикселей
Соотношение сторон : 2,40:1
Режим частоты кадров : Постоянный
Частота кадров : 23,976 (24000/1001) кадра/сек
Цветовое пространство : YUV
Субдискретизация насыщенности : 4:2:0
Битовая глубина : 8 бит
Тип развёртки : Прогрессивная
Бит/(Пиксели*Кадры) : 0.174
Размер потока : 1,93 Гбайт (69%)
Библиотека кодирования : x264 core 146 r2538 121396c
Настройки программы : cabac=1 / ref=10 / deblock=1:-3:-3 / analyse=0x3:0x113 / me=umh / subme=11 / psy=1 / psy_rd=0.98:0.04 / mixed_ref=1 / me_range=48 / chroma_me=1 / trellis=2 / 8x8dct=1 / cqm=0 / deadzone=21,11 / fast_pskip=1 / chroma_qp_offset=-3 / threads=6 / lookahead_threads=1 / sliced_threads=0 / nr=0 / decimate=1 / interlaced=0 / bluray_compat=0 / constrained_intra=0 / bframes=11 / b_pyramid=2 / b_adapt=2 / b_bias=0 / direct=3 / weightb=1 / open_gop=0 / weightp=2 / keyint=240 / keyint_min=23 / scenecut=40 / intra_refresh=0 / rc_lookahead=40 / rc=2pass / mbtree=0 / bitrate=1825 / ratetol=1.0 / qcomp=0.60 / qpmin=0 / qpmax=69 / qpstep=4 / cplxblur=20.0 / qblur=0.5 / vbv_maxrate=50000 / vbv_bufsize=62500 / nal_hrd=none / filler=0 / ip_ratio=1.40 / pb_ratio=1.30 / aq=1:1.00
Язык : English
Default : Да
Forced : Нет

Аудио #1
Идентификатор : 2
Формат : AC-3
Формат/Информация : Audio Coding 3
Расширение режима : CM (complete main)
Параметр Endianness формата : Big
Идентификатор кодека : A_AC3
Продолжительность : 2 ч. 31 м.
Вид битрейта : Постоянный
Битрейт : 448 Кбит/сек
Каналы : 6 каналов
Расположение каналов : Front: L C R, Side: L R, LFE
Частота : 48,0 КГц
Частота кадров : 31,250 кадров/сек (1536 spf)
Битовая глубина : 16 бит
Метод сжатия : С потерями
Размер потока : 485 Мбайт (17%)
Заголовок : [License]
Язык : Russian
Default : Да
Forced : Нет

Аудио #2
Идентификатор : 3
Формат : AC-3
Формат/Информация : Audio Coding 3
Расширение режима : CM (complete main)
Параметр Endianness формата : Big
Идентификатор кодека : A_AC3
Продолжительность : 2 ч. 31 м.
Вид битрейта : Постоянный
Битрейт : 384 Кбит/сек
Каналы : 6 каналов
Расположение каналов : Front: L C R, Side: L R, LFE
Частота : 48,0 КГц
Частота кадров : 31,250 кадров/сек (1536 spf)
Битовая глубина : 16 бит
Метод сжатия : С потерями
Размер потока : 415 Мбайт (14%)
Заголовок : [iTunes]
Язык : Russian
Default : Нет
Forced : Нет

Текст #1
Идентификатор : 4
Формат : UTF-8
Идентификатор кодека : S_TEXT/UTF8
Идентификатор кодека/Информация : UTF-8 Plain Text
Продолжительность : 2 ч. 19 м.
Битрейт : 30 бит/сек
Count of elements : 845
Размер потока : 30,9 Кбайт (0%)
Заголовок : Forced (Text&Speech)
Язык : Russian
Default : Да
Forced : Нет

Текст #2
Идентификатор : 5
Формат : UTF-8
Идентификатор кодека : S_TEXT/UTF8
Идентификатор кодека/Информация : UTF-8 Plain Text
Продолжительность : 2 ч. 15 м.
Битрейт : 1 бит/сек
Count of elements : 14
Размер потока : 1,08 Кбайт (0%)
Заголовок : Forced (Text)
Язык : Russian
Default : Нет
Forced : Нет

Меню
00:00:00.000 : :Глава 01
00:08:49.988 : :Глава 02
00:22:11.830 : :Глава 03
00:32:55.599 : :Глава 04
00:47:48.365 : :Глава 05
01:00:28.625 : :Глава 06
01:17:46.579 : :Глава 07
01:31:32.612 : :Глава 08
01:46:26.839 : :Глава 09
02:01:19.272 : :Глава 10
02:14:36.277 : :Глава 11
02:26:42.252 : :Глава 12

pb.wtf



Скачать Балканский рубеж через торрент https://i87.fastpic.ru/big/2019/0818/af/532b274f39add360597a21372dea83af.jpg Скачать фильм Балканский рубеж через торрент бесплантно в хорошем качестве Описание: Югославия. 1999 год. Российская спецгруппа получает приказ взять под контроль аэродром Слатина в Косово и удерживать его до ... 7.3 10 7
Торрент: Зарегистрирован [2019-08-18 16:29] · скачан: 98 раз
Статус: √ проверено
Размер: 2.81 GB
Как cкачать? Как скачать Балканский рубеж через торрент | qTorrent

% Раздел Тема Автор DL S | L
Наши новые фильмы 2018-2019 [ 2.11 GB ] Балканский рубеж [2019 BDRip] [Русский] Twi7ter Скачать
4 | 0
Наши новые фильмы 2018-2019 [ 2.18 GB ] Балканский рубеж [2019 BDRip] [Русский] [] Twi7ter Скачать
49 | 1
Наши новые фильмы 2018-2019 [ 1.47 GB ] Балканский рубеж [2019 BDRip] [Русский] [] Twi7ter Скачать
14 | 2
Наши фильмы (Blu-ray, BD-Remux, HDDVD) [ 38.26 GB ] Балканский рубеж [2019 Blu-ray RUS 1080p] [Rus Transfer / ] bober100 Скачать
3 | 0
Наши новые фильмы 2018-2019 [ 2.9 GB ] Балканский рубеж [2019 BDRip-AVC] sokol_ok Скачать
7 | 0
Наши новые фильмы 2018-2019 [ 1.47 GB ] Балканский рубеж [2019 BDRip-AVC] sokol_ok Скачать
11 | 0
Наши фильмы (Blu-ray, BD-Remux, HDDVD) [ 38.07 GB ] Балканский рубеж [2019 BDRemux 1080p] [FRA Transfer] sheker187 Скачать
1 | 0

28-11-2019 20:33  

Отключить всю рекламу на сайте

    Дорогой пользователь! Огромная просьба, поблагодарите релизера, оцените раздачу и оставьте свои комментарий, если Вы скачали Балканский рубеж через торрент бесплатно! Внесите свою лепту в развитие PiratBit!
    Комментировать посты могут только пользователи прошедшие не сложную регистрацию
    Показать сообщения:    

    Балканский рубеж через торрент
    Скачать бесплатно Балканский рубеж
    Балканский рубеж скачать торрент
    Балканский рубеж смотреть онлайн
    Cкачать фильм Балканский рубеж бесплатно
    Балканский рубеж скачать торрент в хорошем качестве
    Балканский рубеж смотреть онлайн бесплатно в хорошем качестве


    Вы не можете начинать темы
    Вы не можете отвечать на сообщения
    Вы не можете редактировать свои сообщения
    Вы не можете удалять свои сообщения
    Вы не можете голосовать в опросах
    Вы не можете прикреплять файлы к сообщениям
    Вы можете скачивать файлы