новый адрес
Ссылка на приватное зеркало всего за 1$. Внимание количество ограничено!!!

iTunes

1+1

iTunes

мы

WEB-DL

1

iTunes

Чернобыль

iTunes

Ральф против интернета

Лицензия

ПШазам

Лицензия

Оно 2

Лицензия

30
pack

Вам бонус

ВАЖНО

!!Акция!!

Alien_RageХит недели

RePack

Resident Evil 21

ИГРА 18+

pack

RePack

jed

!!Акция!!

Alien_Rage

RePack

fifa19

RePack

Assassins Creed: Odyssey

RePack

NEED FOR SPEED™ PAYBACK

3 сезон

9 сезон

Бесстыжие 9 сезон

Все сериалы

все сериалы на PB.wtf

RePack

FAR CRY 5
Ребята, катастрофически не хватает 1900р. для оплаты серверов за Октябрь (всвязи с блокировками трафик упал в 3 раза), 1-2р., выручайте.
  

Между мирами / Between Worlds (Мария Пулера) [2018, триллер, мистика, детектив, боевик, BDRip] MVO [iTunes] pb.wtf

Между мирами через торрент pb.wtf

Раздают: 2 [ 0 KB/s ]
Размер: 1.46 GB | Добавлен: 3 мес. 24 д. назад | Торрент скачан:182 раза
Скачать  

18-08-2019 19:50 Между мирами Скачать торрент  

Между мирами / Between Worlds
Год выпуска: 2018
Страна: Испания
Жанр: триллер, мистика, детектив, боевик
Продолжительность: 01:30:18
Перевод: Профессиональный (многоголосый закадровый) | iTunes
Субтитры: отсутствуют

Режиссер: Мария Пулера

rating

В ролях: Николас Кейдж, Франка Потенте, Лидия Хёрст, Пенелопа Митчелл, Гарретт Клэйтон, Хоппер Пенн, Дэвид Ли Смит, Бриттани Шоу, Филип Форнах, Том Уильямс и др.

Описание: В жизни Джо произошла трагедия — он потерял жену и дочь. После встречи с Джулией, которая умеет вызывать умерших, мужчина обретает надежду, однако в его жизни начинает происходить нечто странное. Джо сталкивается с необъяснимыми явлениями и со злом, не желающим уходить.

Качество: BDRip
Формат: AVI

Видео: Xvid 73, 704x384, ~1917 kbps, 23,976 fps
Аудио: русский, AC3, 5.1 ch, 48 kHz, 384 kbps | iTunes
скриншот  скриншот  скриншот  скриншот  

Общее
Полное имя : E:Torrent2MezhduMiramiBDRip.avi
Формат : AVI
Формат/Информация : Audio Video Interleave
Профиль формата : OpenDML
Размер файла : 1,46 Гбайт
Продолжительность : 1 ч. 30 м.
Общий поток : 2313 Кбит/сек
Программа кодирования : XviD4PSP 6.0 / 53.6.0

Видео
Идентификатор : 0
Формат : MPEG-4 Visual
Профиль формата : Advanced Simple@L5
Настройки формата : BVOP1 / Custom Matrix
Параметр BVOP формата : 1
Параметр QPel формата : Нет
Параметр GMC формата : Без точки перехода
Параметр матрицы формата : Выборочная
Идентификатор кодека : XVID
Идентификатор кодека/Подсказка : XviD
Продолжительность : 1 ч. 30 м.
Битрейт : 1917 Кбит/сек
Ширина : 704 пикселя
Высота : 384 пикселя
Соотношение сторон : 1,85:1
Частота кадров : 23,976 (23976/1000) кадра/сек
Цветовое пространство : YUV
Субдискретизация насыщенности : 4:2:0
Битовая глубина : 8 бит
Тип развёртки : Прогрессивная
Метод сжатия : С потерями
Бит/(Пиксели*Кадры) : 0.296
Размер потока : 1,21 Гбайт (83%)
Библиотека кодирования : XviD 73

Аудио
Идентификатор : 1
Формат : AC-3
Формат/Информация : Audio Coding 3
Параметр Endianness формата : Big
Идентификатор кодека : 2000
Продолжительность : 1 ч. 30 м.
Вид битрейта : Постоянный
Битрейт : 384 Кбит/сек
Каналы : 6 каналов
Расположение каналов : Front: L C R, Side: L R, LFE
Частота : 48,0 КГц
Частота кадров : 31,250 кадров/сек (1536 SPF)
Битовая глубина : 16 бит
Метод сжатия : С потерями
Размер потока : 248 Мбайт (17%)
Выравнивание : Соединение по промежуткам
Продолжительность промежутка : 32 мс. (0,77 видеокадр)

pb.wtf



Скачать Между мирами через торрент http://lostpix.com/thumbs/2019-08/18/1muak8b54jlxu895ntsc485uh.png Скачать фильм Между мирами через торрент бесплантно в хорошем качестве Описание: В жизни Джо произошла трагедия — он потерял жену и дочь. После встречи с Джулией, которая умеет вызывать умерших, мужчина ... 9.8 10 12
Info! Золотая раздача, скачанное не засчитывается.
Торрент: Зарегистрирован [2019-08-18 19:50] · скачан: 182 раз
Статус: √ проверено
Размер: 1.46 GB
Как cкачать? Как скачать Между мирами через торрент | qTorrent

% Раздел Тема Автор DL S | L
Фильмы 2018 [DVDrip, WEB-DLRip, HDrip] (DUB, MVO) [ 1.42 GB ] Между мирами / Between Worlds [2018 BDRip] MVO Twi7ter Скачать
22 | 6
Фильмы [HD 720p, 1080p] (Хороший звук DUB, MVO) [ 4.07 GB ] Между мирами / Between Worlds [2018 BDRip 720p] 2xMVO [ HDRezka Studio] bober100 Скачать
3 | 0
Фильмы 2018 [DVDrip, WEB-DLRip, HDrip] (DUB, MVO) [ 2.12 GB ] Между мирами / Between Worlds [2018 BDRip-AVC] 2xMVO [ HDRezka Studio] bober100 Скачать
2 | 0
Фильмы [HD 720p, 1080p] (Хороший звук DUB, MVO) [ 7.49 GB ] Между мирами / Between Worlds [2018 BDRip 1080p] 2xMVO [ HDRezka Studio] bober100 Скачать
3 | 0

28-11-2019 20:33  

Отключить всю рекламу на сайте

    Дорогой пользователь! Огромная просьба, поблагодарите релизера, оцените раздачу и оставьте свои комментарий, если Вы скачали Между мирами через торрент бесплатно! Внесите свою лепту в развитие PiratBit!
    Комментировать посты могут только пользователи прошедшие не сложную регистрацию
    Показать сообщения:    

    Между мирами через торрент
    Скачать бесплатно Между мирами
    Между мирами скачать торрент
    Между мирами смотреть онлайн
    Cкачать фильм Между мирами бесплатно
    Между мирами скачать торрент в хорошем качестве
    Между мирами смотреть онлайн бесплатно в хорошем качестве


    Вы не можете начинать темы
    Вы не можете отвечать на сообщения
    Вы не можете редактировать свои сообщения
    Вы не можете удалять свои сообщения
    Вы не можете голосовать в опросах
    Вы не можете прикреплять файлы к сообщениям
    Вы можете скачивать файлы