Ссылка на приватное зеркало нашего сайта всего за 1$. Внимание количество ограничено!!!

2 сезон

iTunes

1 сезон

1

2 сезон

2 сезон

iTunes

1 сезон

RePack

30

Ultimate

ВАЖНО

ИГРА 18+

pack

RePack

MK11
pack

Забери бонус

RePack

jed

!!Акция!!

Alien_Rage

RePack

fifa19

RePack

Assassins Creed: Odyssey

RePack

NEED FOR SPEED™ PAYBACK

4 сезон

9 сезон

Бесстыжие 9 сезон

Все сериалы

все сериалы на PB.wtf

RePack

FAR CRY 5
  

Годзилла 2: Король монстров / Godzilla: King of the Monsters (Майкл Догерти) [2019, фантастика, фэнтези, боевик, приключения, UHD BDRip 2160p] DUB (rus,ukr) [Лицензия] +MVO [HDRezka Studio] pb.wtf

Годзилла 2: Король монстров через торрент pb.wtf

Размер: 15.56 GB | Добавлен: 1 год 2 мес. назад | Торрент скачан:56 раз
Скачать  

18-08-2019 20:31 Годзилла 2: Король монстров Скачать торрент  

Годзилла 2: Король монстров / Godzilla: King of the Monsters
Год выпуска: 2019
Страна: США, Япония
Жанр: фантастика, фэнтези, боевик, приключения
Продолжительность: 02:11:42
Перевод:

#1: Дублированный | Лицензия
#2: Профессиональный многоголосый | HDRezka Studio

Субтитры: Русские, украинские, английские

Режиссер: Майкл Догерти

rating

В ролях:

Кайл Чандлер (Dr. Mark Russell), Вера Фармига (Dr. Emma Russell), Милли Бобби Браун (Madison Russell), Кэн Ватанабэ (Dr. Ishiro Serizawa), Чжан Цзыи (Dr. Ilene Chen / Dr. Ling), Брэдли Уитфорд (Dr. Rick Stanton), Салли Хокинс (Dr. Vivienne Graham), Чарльз Дэнс (Alan Jonah), Томас Миддлдитч (Sam Coleman), Аиша Хайндс (Colonel Diane Foster), О’Ши Джексон мл. (Chief Warrant Officer Barnes), Дэвид Стрэтэйрн (Admiral William Stenz)
Описание: История рассказывает о героических усилиях криптозоологического агентства «Монарх» по сдерживанию гигантских монстров. В этот раз против могучего Годзиллы выступают Мотра, Родан и ультимативный кайдзю - трёхголовый монстр Кинг Гидора. Когда эти древние суперхищники, со временем превратившиеся в полузабытые мифы, восстают снова, чтобы сойтись в схватке, человечеству остаётся отойти в сторонку и постараться не погибнуть.

Качество: UHD BDRip 2160p
Формат: MKV

Видео: HEVC HDR, 15.7 Mбит/с, 3840x1600, 23.976 кадр/с, 10 Бит
Аудио#1: 48 kHz, AC3, 5.1, 448 Kbps | Лицензия | RUS |
Аудио#2: 48 kHz, AC3, 2.0, 192 Kbps | HDRezka Studio | RUS |
Аудио#3: 48 kHz, AC3, 2.0, 160 Kbps | iTunes | UKR |
Аудио#4: 48 kHz, AC3, 5.1, 448 Kbps | Оригинал | ENG |
скриншот  скриншот  скриншот  скриншот  

Общее
Уникальный идентификатор : 251617719140956799555493301329694138072 (0xBD4BCF5B0F145267B3570067B2D19ED8)
Полное имя : D:\Передел\Godzilla-King of the Monsters.2019.BDRip.x265.2160p.HDR.10-bit.Master5.mkv
Формат : Matroska
Версия формата : Version 4
Размер файла : 15,6 Гбайт
Продолжительность : 2 ч. 11 м.
Общий поток : 16,9 Мбит/сек
Название фильма : Godzilla-King of the Monsters.2019.BDRip.x265.2160p.HDR.10-bit.Master5
Дата кодирования : UTC 2019-09-03 17:52:49
Программа кодирования : mkvmerge v7.9.0 ('Birds') 64bit
Библиотека кодирования : libebml v1.3.1 + libmatroska v1.4.2

Видео
Идентификатор : 1
Формат : HEVC
Формат/Информация : High Efficiency Video Coding
Коммерческое название : HDR10
Профиль формата : Main 10@L5.1@High
Идентификатор кодека : V_MPEGH/ISO/HEVC
Продолжительность : 2 ч. 11 м.
Битрейт : 15,7 Мбит/сек
Ширина : 3840 пикселей
Высота : 1600 пикселей
Соотношение сторон : 2,40:1
Режим частоты кадров : Постоянный
Частота кадров : 23,976 (24000/1001) кадра/сек
Цветовое пространство : YUV
Субдискретизация насыщенности : 4:2:0 (Type 2)
Битовая глубина : 10 бит
Бит/(Пиксели*Кадры) : 0.106
Размер потока : 14,4 Гбайт (93%)
Заголовок : Godzilla-King of the Monsters.2019.BDRip.x265.2160p.HDR.10-bit.Master5
Библиотека кодирования : x265 3.1+11-de920e0a3183:[Windows][GCC 6.3.0][64 bit] 10bit
Настройки программы : cpuid=1176575 / frame-threads=5 / numa-pools=36 / wpp / no-pmode / no-pme / no-psnr / no-ssim / log-level=2 / input-csp=1 / input-res=3840x1600 / interlace=0 / total-frames=189485 / level-idc=51 / high-tier=1 / uhd-bd=0 / ref=4 / no-allow-non-conformance / repeat-headers / annexb / aud / hrd / info / hash=0 / no-temporal-layers / no-open-gop / min-keyint=1 / keyint=24 / gop-lookahead=0 / bframes=4 / b-adapt=2 / b-pyramid / bframe-bias=0 / rc-lookahead=25 / lookahead-slices=4 / scenecut=40 / radl=0 / no-splice / no-intra-refresh / ctu=64 / min-cu-size=8 / rect / no-amp / max-tu-size=32 / tu-inter-depth=1 / tu-intra-depth=1 / limit-tu=0 / rdoq-level=2 / dynamic-rd=0.00 / no-ssim-rd / signhide / no-tskip / nr-intra=0 / nr-inter=0 / no-constrained-intra / no-strong-intra-smoothing / max-merge=3 / limit-refs=3 / limit-modes / me=3 / subme=3 / merange=57 / temporal-mvp / no-hme / weightp / no-weightb / no-analyze-src-pics / deblock=-3:-3 / no-sao / no-sao-non-deblock / rd=4 / no-early-skip / rskip / no-fast-intra / no-tskip-fast / no-cu-lossless / no-b-intra / no-splitrd-skip / rdpenalty=0 / psy-rd=2.00 / psy-rdoq=1.00 / no-rd-refine / no-lossless / cbqpoffs=0 / crqpoffs=0 / rc=crf / crf=17.0 / qcomp=0.60 / qpstep=4 / stats-write=0 / stats-read=0 / vbv-maxrate=160000 / vbv-bufsize=160000 / vbv-init=0.9 / crf-max=0.0 / crf-min=0.0 / ipratio=1.40 / pbratio=1.30 / aq-mode=2 / aq-strength=1.00 / cutree / zone-count=0 / no-strict-cbr / qg-size=32 / no-rc-grain / qpmax=69 / qpmin=0 / no-const-vbv / sar=1 / overscan=0 / videoformat=5 / range=0 / colorprim=9 / transfer=16 / colormatrix=9 / chromaloc=1 / chromaloc-top=2 / chromaloc-bottom=2 / display-window=0 / master-display=G(13250,34500)B(7500,3000)R(34000,16000)WP(15635,16450)L(40000000,50)cll=1998,414 / min-luma=0 / max-luma=1023 / log2-max-poc-lsb=8 / vui-timing-info / vui-hrd-info / slices=1 / no-opt-qp-pps / no-opt-ref-list-length-pps / no-multi-pass-opt-rps / scenecut-bias=0.05 / no-opt-cu-delta-qp / no-aq-motion / hdr / hdr-opt / no-dhdr10-opt / no-idr-recovery-sei / analysis-reuse-level=5 / scale-factor=0 / refine-intra=0 / refine-inter=0 / refine-mv=0 / refine-ctu-distortion=0 / no-limit-sao / ctu-info=0 / no-lowpass-dct / refine-analysis-type=0 / copy-pic=1 / max-ausize-factor=1.0 / no-dynamic-refine / no-single-sei / no-hevc-aq / no-svt / no-field / qp-adaptation-range=1.00
Язык : English
Default : Да
Forced : Нет
Цветовой диапазон : Limited
Основные цвета : BT.2020
Характеристики трансфера : PQ
Коэффициенты матрицы : BT.2020 non-constant
MasteringDisplay_ColorPrimaries : Display P3
MasteringDisplay_Luminance : min: 0.0050 cd/m2, max: 4000 cd/m2
MaxCLL : 1998 cd/m2
MaxFALL : 414 cd/m2

Аудио #1
Идентификатор : 2
Формат : AC-3
Формат/Информация : Audio Coding 3
Коммерческое название : Dolby Digital
Идентификатор кодека : A_AC3
Продолжительность : 2 ч. 11 м.
Вид битрейта : Постоянный
Битрейт : 448 Кбит/сек
Каналы : 6 каналов
Channel layout : L R C LFE Ls Rs
Частота : 48,0 КГц
Частота кадров : 31,250 кадров/сек (1536 SPF)
Битовая глубина : 16 бит
Метод сжатия : С потерями
Размер потока : 422 Мбайт (3%)
Заголовок : Лицензия
Язык : Russian
ServiceKind/String : Complete Main
Default : Да
Forced : Да

Аудио #2
Идентификатор : 3
Формат : AC-3
Формат/Информация : Audio Coding 3
Коммерческое название : Dolby Digital
Идентификатор кодека : A_AC3
Продолжительность : 2 ч. 11 м.
Вид битрейта : Постоянный
Битрейт : 192 Кбит/сек
Каналы : 2 канала
Channel layout : L R
Частота : 48,0 КГц
Частота кадров : 31,250 кадров/сек (1536 SPF)
Битовая глубина : 16 бит
Метод сжатия : С потерями
Размер потока : 181 Мбайт (1%)
Заголовок : MVO, HDRezka Studio
Язык : Russian
ServiceKind/String : Complete Main
Default : Нет
Forced : Нет

Аудио #3
Идентификатор : 4
Формат : AC-3
Формат/Информация : Audio Coding 3
Коммерческое название : Dolby Digital
Идентификатор кодека : A_AC3
Продолжительность : 2 ч. 11 м.
Вид битрейта : Постоянный
Битрейт : 160 Кбит/сек
Каналы : 2 канала
Channel layout : L R
Частота : 44,1 КГц
Частота кадров : 28,711 кадров/сек (1536 SPF)
Битовая глубина : 16 бит
Метод сжатия : С потерями
Размер потока : 151 Мбайт (1%)
Заголовок : DUB, iTunes
Язык : Ukrainian
ServiceKind/String : Complete Main
Default : Нет
Forced : Нет

Аудио #4
Идентификатор : 5
Формат : AC-3
Формат/Информация : Audio Coding 3
Коммерческое название : Dolby Digital
Идентификатор кодека : A_AC3
Продолжительность : 2 ч. 11 м.
Вид битрейта : Постоянный
Битрейт : 448 Кбит/сек
Каналы : 6 каналов
Channel layout : L R C LFE Ls Rs
Частота : 48,0 КГц
Частота кадров : 31,250 кадров/сек (1536 SPF)
Битовая глубина : 16 бит
Метод сжатия : С потерями
Размер потока : 422 Мбайт (3%)
Язык : English
ServiceKind/String : Complete Main
Default : Нет
Forced : Нет

Текст #1
Идентификатор : 6
Формат : UTF-8
Идентификатор кодека : S_TEXT/UTF8
Идентификатор кодека/Информация : UTF-8 Plain Text
Продолжительность : 2 ч. 8 м.
Битрейт : 1 бит/сек
ElementCount : 24
Размер потока : 1,42 Кбайт (0%)
Заголовок : Форс.
Язык : Russian
Default : Да
Forced : Нет

Текст #2
Идентификатор : 7
Формат : UTF-8
Идентификатор кодека : S_TEXT/UTF8
Идентификатор кодека/Информация : UTF-8 Plain Text
Продолжительность : 2 ч. 10 м.
Битрейт : 77 бит/сек
ElementCount : 1372
Размер потока : 74,2 Кбайт (0%)
Заголовок : Полные
Язык : Russian
Default : Нет
Forced : Нет

Текст #3
Идентификатор : 8
Формат : UTF-8
Идентификатор кодека : S_TEXT/UTF8
Идентификатор кодека/Информация : UTF-8 Plain Text
Продолжительность : 2 ч. 10 м.
Битрейт : 5 бит/сек
ElementCount : 74
Размер потока : 4,93 Кбайт (0%)
Заголовок : Форс.
Язык : Ukrainian
Default : Нет
Forced : Нет

Текст #4
Идентификатор : 9
Формат : UTF-8
Идентификатор кодека : S_TEXT/UTF8
Идентификатор кодека/Информация : UTF-8 Plain Text
Продолжительность : 2 ч. 11 м.
Битрейт : 53 бит/сек
ElementCount : 1661
Размер потока : 51,4 Кбайт (0%)
Заголовок : Full
Язык : English
Default : Нет
Forced : Нет

Меню
00:00:00.000 : en:Chapter 01
00:10:53.903 : en:Chapter 02
00:18:06.835 : en:Chapter 03
00:30:27.325 : en:Chapter 04
00:45:18.632 : en:Chapter 05
00:54:11.039 : en:Chapter 06
01:05:41.646 : en:Chapter 07
01:09:31.584 : en:Chapter 08
01:19:31.308 : en:Chapter 09
01:30:06.234 : en:Chapter 10
01:38:36.869 : en:Chapter 11
01:49:58.883 : en:Chapter 12
01:59:28.828 : en:Chapter 13

pb.wtf



Скачать Годзилла 2: Король монстров через торрент https://img16.lostpic.net/2019/08/18/2e778c03a6633d90519bb405906ef828.jpg Скачать фильм Годзилла 2: Король монстров через торрент бесплантно в хорошем качестве Описание: История рассказывает о героических усилиях криптозоологического агентства «Монарх» по сдерживанию гигантских монстров. В этот раз ... 10 10 9
Торрент: Зарегистрирован [2019-09-03 19:01] · скачан: 56 раз
Статус: √ проверено
Размер: 15.56 GB
Как cкачать? Как скачать Годзилла 2: Король монстров через торрент | qTorrent

% Раздел Тема Автор DL S | L
Фильмы (HD 720p, 1080p) (48-60 fps) [ 24.09 GB ] Годзилла 2: Король монстров / Godzilla: King of the Monsters [2019 BDRip 1080p 60 fps] DUB sheker187 Скачать
3 | 0
Фильмы (Blu-ray, BD-Remux, HDDVD) [ 24.84 GB ] Годзилла 2: Король монстров / Godzilla: King of the Monsters [2019 BD Remux 1080p] DUB +MVO [HDRezka Studio] bober100 Скачать
2 | 0
Фильмы 2019-2020 [DVDrip, WEB-DLRip, HDrip] (DUB, MVO) [ 2.82 GB ] Годзилла 2: Король монстров / Godzilla: King of the Monsters [2019 WEB-DLRip-AVC] - ExKinoRay Enigma2010 Скачать
14 | 0
Фильмы (Blu-ray, BD-Remux, HDDVD) [ 45.16 GB ] Годзилла 2: Король монстров / Godzilla: King of the Monsters [2019 Blu-ray EUR 1080p] DUB [] bober100 Скачать
1 | 0
Ultra HD (UHD: 2K, 4K, 8K) — видео сверхвысокой чёткости [ 64.08 GB ] Годзилла 2: Король монстров / Godzilla: King of the Monsters [2019 UHD Blu-ray 2160p] [Dolby Vision] DUB [] bober100 Скачать
1 | 0
Ultra HD (UHD: 2K, 4K, 8K) — видео сверхвысокой чёткости [ 56.65 GB ] Годзилла 2: Король монстров / Godzilla: King of the Monsters [2019 UHD BDRemux 2160p] DUB [] +MVO [HDRezka Studio] bober100 Скачать
1 | 0
R.G. Resident & PiratVoice - Фильмы, Видео [ 466 MB ] Годзилла 2: Король монстров / Godzilla: King of the Monsters [2019 HDRip | КПК ] Cтрана Скачать
1 | 0

28-11-2019 20:33  

Отключить всю рекламу на сайте

    Дорогой пользователь! Огромная просьба, поблагодарите релизера, оцените раздачу и оставьте свои комментарий, если Вы скачали Годзилла 2: Король монстров через торрент бесплатно! Внесите свою лепту в развитие PiratBit!
    Комментировать посты могут только пользователи прошедшие не сложную регистрацию
    Показать сообщения:    

    Годзилла 2: Король монстров через торрент
    Скачать бесплатно Годзилла 2: Король монстров
    Годзилла 2: Король монстров скачать торрент
    Годзилла 2: Король монстров смотреть онлайн
    Cкачать фильм Годзилла 2: Король монстров бесплатно
    Годзилла 2: Король монстров скачать торрент в хорошем качестве
    Годзилла 2: Король монстров смотреть онлайн бесплатно в хорошем качестве


    Вы не можете начинать темы
    Вы не можете отвечать на сообщения
    Вы не можете редактировать свои сообщения
    Вы не можете удалять свои сообщения
    Вы не можете голосовать в опросах
    Вы не можете прикреплять файлы к сообщениям
    Вы можете скачивать файлы