Ссылка на приватное зеркало всего за 1$. Внимание количество ограничено!!!

OK

1+1

iTunes

мы

OK

1

WEB-DLRip

Джокер

Пифагор

Ведьмак / The Witcher сериал

Лицензия

ПШазам

ОК

Оно 2

iTunes

30
pack

Вам бонус

ВАЖНО

!!Акция!!

Alien_RageХит недели

RePack

Resident Evil 21

ИГРА 18+

pack

RePack

jed

!!Акция!!

Alien_Rage

RePack

fifa19

RePack

Assassins Creed: Odyssey

RePack

NEED FOR SPEED™ PAYBACK

4 сезон

9 сезон

Бесстыжие 9 сезон

Все сериалы

все сериалы на PB.wtf

RePack

FAR CRY 5
  

Солдатики / Small Soldiers (Джо Данте) [1998, фантастика, BDRip - HEVC 1080p 10 bit 60 FPS] Профессиональный многоголосый pb.wtf

Солдатики через торрент pb.wtf

Размер: 5.59 GB | Добавлен: 4 мес. 28 д. назад | Торрент скачан:67 раз
Скачать  

19-08-2019 17:48 Солдатики Скачать торрент  

Солдатики / Small Soldiers
««Smart, Funny and Action-Packed»»

Год выпуска: 1998
Страна: США
Жанр: фантастика,
Продолжительность: 01:49:47
Перевод: Профессиональный многоголосый (Позитив-Мультимедиа)
Перевод: Авторский одноголосый (Гланц)
Перевод: Профессиональный многоголосый (СТС)
Перевод: Профессиональный многоголосый (VHS)
Перевод: Английский
Субтитры: русские,
Субтитры: английские.
Режиссер: Джо Данте
В ролях:

Дэвид Кросс (Irwin Wayfair), Джей Мор (Larry Benson), Александра Уилсон (Ms. Kegel), Дэнис Лири (Gil Mars), Грегори Смит (Alan Abernathy), Дик Миллер (Joe), Кирстен Данст (Christy Fimple), Джейкоб Смит (Timmy Fimple), Джонатан Боак (Brad), Кевин Данн (Stuart Abernathy), Энн Магнусон (Irene Abernathy), Уэнди Шаал (Marion Fimple)
Описание:
Корпорация «Глоботек» задействовала в производстве игрушек военные технологии, один из разработчиков вставил в новую серию солдатиков сверхсовременные самообучающиеся микропроцессоры. В результате в магазин поступили злые десантники, запрограммированные воевать с добрыми фантастическими существами гаргонитами.
Мировая премьера: 10 июля 1998

Качество: BDRip 1080p Rip by DD2D3
Исходник: BDRemux MediaClub
Формат: MKV
Видео: V_MPEGH/ISO/HEVC, 1920x816 (2.35:1), 4005 kbps, 59,940 fps, 0,043 bpp
Аудио №1: русский / AC3 / 5.1 / 48 kHz / 448 kbps / ||
Аудио №2: русский / AC3 / 5.1 / 48 kHz / 448 kbps / ||
Аудио №3: русский / AC3 / 2.0 / 48 kHz / 192 kbps / ||
Аудио №4: русский / AC3 / 2.0 / 48 kHz / 192 kbps / ||
Аудио №5: английский / DTS-HD / 5.1 / 48 kHz / 1996 kbps / 16 bit (Core: 5.1 / 48 kHz / 1509 kbps / 16 bit)
Навигация по главам: есть


Общее
Уникальный идентификатор : 192454260037904803734320969376566199658 (0x90C9579C9821C54C8022CC48DA99C56A)
Полное имя : D:\Солдатики - Small Soldiers (1998) BDRip - HEVC 1080p 10 bit 60 FPS.mkv
Формат : Matroska
Версия формата : Version 4
Размер файла : 5,59 Гбайт
Продолжительность : 1 ч. 49 м.
Режим общего битрейта : Переменный
Общий поток : 7289 Кбит/сек
Название фильма : Rip by DD2D3
Дата кодирования : UTC 2019-08-19 16:32:50
Программа кодирования : mkvmerge v10.0.0 ('To Drown In You') 32bit
Библиотека кодирования : libebml v1.3.4 + libmatroska v1.4.5
Attachments : poster

Видео
Идентификатор : 1
Формат : HEVC
Формат/Информация : High Efficiency Video Coding
Профиль формата : Main 10@L4.1@Main
Идентификатор кодека : V_MPEGH/ISO/HEVC
Продолжительность : 1 ч. 49 м.
Битрейт : 4006 Кбит/сек
Ширина : 1920 пикселей
Высота : 816 пикселей
Соотношение сторон : 2,35:1
Режим частоты кадров : Постоянный
Частота кадров : 59,940 (60000/1001) кадров/сек
Цветовое пространство : YUV
Субдискретизация насыщенности : 4:2:0
Битовая глубина : 10 бит
Бит/(Пиксели*Кадры) : 0.043
Размер потока : 3,07 Гбайт (55%)
Библиотека кодирования : x265 2.3+33-0b7d54dbb71a87a0:[Windows][MSVC 1800][64 bit] 10bit: KG7x [x265.ru]
Настройки программы : cpuid=1173503 / frame-threads=2 / numa-pools=4 / wpp / no-pmode / no-pme / no-psnr / no-ssim / log-level=2 / input-csp=1 / input-res=1920x816 / interlace=0 / total-frames=394858 / level-idc=41 / high-tier=1 / uhd-bd=0 / ref=3 / no-allow-non-conformance / no-repeat-headers / annexb / no-aud / no-hrd / info / hash=0 / no-temporal-layers / open-gop / min-keyint=25 / keyint=250 / bframes=4 / b-adapt=2 / b-pyramid / bframe-bias=0 / rc-lookahead=20 / lookahead-slices=5 / scenecut=40 / no-intra-refresh / ctu=64 / min-cu-size=8 / no-rect / no-amp / max-tu-size=32 / tu-inter-depth=1 / tu-intra-depth=1 / limit-tu=0 / rdoq-level=0 / dynamic-rd=0.00 / no-ssim-rd / signhide / no-tskip / nr-intra=0 / nr-inter=0 / no-constrained-intra / strong-intra-smoothing / max-merge=2 / limit-refs=3 / no-limit-modes / me=1 / subme=2 / merange=57 / temporal-mvp / weightp / no-weightb / no-analyze-src-pics / deblock=0:0 / no-sao / no-sao-non-deblock / rd=3 / no-early-skip / no-rskip / no-fast-intra / no-tskip-fast / no-cu-lossless / no-b-intra / rdpenalty=0 / psy-rd=4.00 / psy-rdoq=0.00 / no-rd-refine / analysis-mode=0 / no-lossless / cbqpoffs=0 / crqpoffs=0 / rc=abr / bitrate=4000 / qcomp=0.60 / qpstep=1 / stats-write=0 / stats-read=2 / cplxblur=20.0 / qblur=0.5 / ipratio=1.10 / pbratio=1.00 / aq-mode=0 / aq-strength=0.00 / no-cutree / zone-count=0 / no-strict-cbr / qg-size=64 / rc-grain / qpmax=69 / qpmin=0 / sar=1 / overscan=0 / videoformat=5 / range=0 / colorprim=2 / transfer=2 / colormatrix=2 / chromaloc=0 / display-window=0 / max-cll=0,0 / min-luma=0 / max-luma=1023 / log2-max-poc-lsb=8 / vui-timing-info / vui-hrd-info / slices=1 / opt-qp-pps / opt-ref-list-length-pps / no-multi-pass-opt-rps / scenecut-bias=0.05 / no-opt-cu-delta-qp / no-aq-motion / no-hdr / no-hdr-opt / refine-level=5 / no-limit-sao
Default : Да
Forced : Нет

Аудио #1
Идентификатор : 2
Формат : AC-3
Формат/Информация : Audio Coding 3
Коммерческое название : Dolby Digital
Идентификатор кодека : A_AC3
Продолжительность : 1 ч. 49 м.
Вид битрейта : Постоянный
Битрейт : 448 Кбит/сек
Каналы : 6 каналов
Channel layout : L R C LFE Ls Rs
Частота : 48,0 КГц
Частота кадров : 31,250 кадров/сек (1536 SPF)
Битовая глубина : 16 бит
Метод сжатия : С потерями
Размер потока : 352 Мбайт (6%)
Заголовок : MVO
Язык : Russian
ServiceKind/String : Complete Main
Default : Да
Forced : Да

Аудио #2
Идентификатор : 3
Формат : AC-3
Формат/Информация : Audio Coding 3
Коммерческое название : Dolby Digital
Идентификатор кодека : A_AC3
Продолжительность : 1 ч. 49 м.
Вид битрейта : Постоянный
Битрейт : 448 Кбит/сек
Каналы : 6 каналов
Channel layout : L R C LFE Ls Rs
Частота : 48,0 КГц
Частота кадров : 31,250 кадров/сек (1536 SPF)
Битовая глубина : 16 бит
Метод сжатия : С потерями
Размер потока : 352 Мбайт (6%)
Заголовок : Гланц
Язык : Russian
ServiceKind/String : Complete Main
Default : Нет
Forced : Нет

Аудио #3
Идентификатор : 4
Формат : AC-3
Формат/Информация : Audio Coding 3
Коммерческое название : Dolby Digital
Идентификатор кодека : A_AC3
Продолжительность : 1 ч. 49 м.
Вид битрейта : Постоянный
Битрейт : 192 Кбит/сек
Каналы : 2 канала
Channel layout : L R
Частота : 48,0 КГц
Частота кадров : 31,250 кадров/сек (1536 SPF)
Битовая глубина : 16 бит
Метод сжатия : С потерями
Размер потока : 151 Мбайт (3%)
Заголовок : СТС
Язык : Russian
ServiceKind/String : Complete Main
Default : Нет
Forced : Нет

Аудио #4
Идентификатор : 5
Формат : AC-3
Формат/Информация : Audio Coding 3
Коммерческое название : Dolby Digital
Идентификатор кодека : A_AC3
Продолжительность : 1 ч. 49 м.
Вид битрейта : Постоянный
Битрейт : 192 Кбит/сек
Каналы : 2 канала
Channel layout : L R
Частота : 48,0 КГц
Частота кадров : 31,250 кадров/сек (1536 SPF)
Битовая глубина : 16 бит
Метод сжатия : С потерями
Размер потока : 151 Мбайт (3%)
Заголовок : VHS
Язык : Russian
ServiceKind/String : Complete Main
Default : Нет
Forced : Нет

Аудио #5
Идентификатор : 6
Формат : DTS XLL
Формат/Информация : Digital Theater Systems
Коммерческое название : DTS-HD Master Audio
Идентификатор кодека : A_DTS
Продолжительность : 1 ч. 49 м.
Вид битрейта : Переменный
Битрейт : 1997 Кбит/сек
Каналы : 6 каналов
Channel layout : C L R Ls Rs LFE
Частота : 48,0 КГц
Частота кадров : 93,750 кадра/сек (512 SPF)
Битовая глубина : 16 бит
Метод сжатия : Без потерь
Размер потока : 1,53 Гбайт (27%)
Язык : English
Default : Нет
Forced : Нет

Текст #1
Идентификатор : 7
Формат : UTF-8
Идентификатор кодека : S_TEXT/UTF8
Идентификатор кодека/Информация : UTF-8 Plain Text
Продолжительность : 1 ч. 48 м.
Битрейт : 101 бит/сек
ElementCount : 1543
Размер потока : 81,2 Кбайт (0%)
Язык : Russian
Default : Нет
Forced : Нет

Текст #2
Идентификатор : 8
Формат : UTF-8
Идентификатор кодека : S_TEXT/UTF8
Идентификатор кодека/Информация : UTF-8 Plain Text
Продолжительность : 1 ч. 48 м.
Битрейт : 55 бит/сек
ElementCount : 1210
Размер потока : 44,2 Кбайт (0%)
Язык : English
Default : Нет
Forced : Нет

Меню
00:00:00.000 : en:Chapter 01
00:07:30.324 : en:Chapter 02
00:10:31.672 : en:Chapter 03
00:18:36.281 : en:Chapter 04
00:21:43.302 : en:Chapter 05
00:29:40.528 : en:Chapter 06
00:35:30.711 : en:Chapter 07
00:42:50.484 : en:Chapter 08
00:49:42.521 : en:Chapter 09
00:58:14.699 : en:Chapter 10
01:04:33.744 : en:Chapter 11
01:12:49.740 : en:Chapter 12
01:18:46.263 : en:Chapter 13
01:28:05.905 : en:Chapter 14
01:37:45.192 : en:Chapter 15
01:44:15.165 : en:Chapter 16
скриншот  скриншот  скриншот  скриншот  скриншот  

© Оформление by DD2D3 pb.wtf



Скачать Солдатики через торрент https://funkyimg.com/i/2Wmpo.jpg Скачать фильм Солдатики через торрент бесплантно в хорошем качестве Описание: Корпорация «Глоботек» задействовала в производстве игрушек военные технологии, один из разработчиков вставил в новую серию ... 10 10 6
Info! Золотая раздача, скачанное не засчитывается.
Торрент: Зарегистрирован [2019-08-19 17:48] · скачан: 67 раз
Статус: √ проверено
Размер: 5.59 GB
Как cкачать? Как скачать Солдатики через торрент | qTorrent

% Раздел Тема Автор DL S | L
Фильмы [HD 720p, 1080p] (Хороший звук DUB, MVO) [ 4.13 GB ] Солдатики / Small Soldiers [1998 BDRip 1080p HEVC многоголосый ] Мичман37 Скачать
2 | 0
Фильмы до 2000 г. [ 2.67 GB ] Солдатики / Маленькие Солдаты / Small Soldiers [1998 HDRip ] 4eJLoJ3ek Скачать
1 | 0
Фильмы до 2000 г. [ 1.36 GB ] Солдатики /Small Soldiers [1998 Детский DVDRip ] Plana Скачать
1 | 0

28-11-2019 20:33  

Отключить всю рекламу на сайте

20-08-2019 05:15 Солдатики Скачать торрент  

Качать не буду, есть на кассете. Но за ностальгию, спасибоpb.wtf



    Дорогой пользователь! Огромная просьба, поблагодарите релизера, оцените раздачу и оставьте свои комментарий, если Вы скачали Солдатики через торрент бесплатно! Внесите свою лепту в развитие PiratBit!
    Комментировать посты могут только пользователи прошедшие не сложную регистрацию
    Показать сообщения:    

    Солдатики через торрент
    Скачать бесплатно Солдатики
    Солдатики скачать торрент
    Солдатики смотреть онлайн
    Cкачать фильм Солдатики бесплатно
    Солдатики скачать торрент в хорошем качестве
    Солдатики смотреть онлайн бесплатно в хорошем качестве


    Вы не можете начинать темы
    Вы не можете отвечать на сообщения
    Вы не можете редактировать свои сообщения
    Вы не можете удалять свои сообщения
    Вы не можете голосовать в опросах
    Вы не можете прикреплять файлы к сообщениям
    Вы можете скачивать файлы