Ссылка на приватное зеркало нашего сайта всего за 1$. Внимание количество ограничено!!!

2 сезон

iTunes

1 сезон

1

2 сезон

2 сезон

iTunes

1 сезон

RePack

30

Новинка

ВАЖНО

ИГРА 18+

pack

RePack

MK11
pack

Забери бонус

RePack

jed

!!Акция!!

Alien_Rage

RePack

fifa19

RePack

Assassins Creed: Odyssey

RePack

NEED FOR SPEED™ PAYBACK

4 сезон

9 сезон

Бесстыжие 9 сезон

Все сериалы

все сериалы на PB.wtf

RePack

FAR CRY 5
  

Мышеловка / 4x4 (Мариано Кон) [2019, Триллер, криминал, WEB-DL 1080p] DUB [iTunes] pb.wtf

Мышеловка через торрент pb.wtf

Раздают: 1 [ 0 KB/s ]
Размер: 3.18 GB | Добавлен: 1 год 3 мес. назад | Торрент скачан:373 раза
Скачать  

19-08-2019 19:43 Мышеловка Скачать торрент  

Мышеловка / 4x4
Год выпуска: 2019
Страна: Аргентина, Испания
Жанр: Триллер, криминал
Продолжительность: 01:32:00
Перевод: Дублированный | iTunes
Субтитры: отсутствуют

Режиссер: Мариано Кон

rating

В ролях: Питер Ланзани, Луис Брандони, Дади Бриева, Ноэлия Кастаньо, Густаво Родригес и др.

Описание: Для Сиро Бермудеса, промышлявшего воровством, открыть новенький внедорожник, припаркованный на тихой улице, — как два пальца об асфальт. Выломать компьютер, пошарить в бардачке — дело одной минуты. Помочиться на заднее сиденье, чтобы дополнительно отравить жизнь хозяину, — его фирменный стиль. Но вот дальше случилось невероятное: двери заблокировались, и Сиро оказался запертым в бронированной машине с пуленепробиваемыми и наглухо тонированными стеклами. Орать и пытаться вырваться бесполезно — никто не увидит и не услышит. Телефон разряжен. 40-градусная жара. Страх, истерика, отчаяние. А кошмар Сиро только начинался…

Качество: WEB-DL 1080p
Формат: MKV

Видео: MPEG-4 AVC, 1920x804, 4560 kbps, 24,000 fps
Аудио: русский, AC3, 5.1 ch, 48 kHz, 384 kbps | iTunes
скриншот  скриншот  скриншот  скриншот  скриншот  

Общее
Уникальный идентификатор : 220980289220728211533090143857803610629 (0xA63F416FD9C32E3E89C9A111E8254A05)
Полное имя : E:Torrent2MyshelovkaWEBDL1080p.mkv
Формат : Matroska
Версия формата : Version 4 / Version 2
Размер файла : 3,18 Гбайт
Продолжительность : 1 ч. 32 м.
Общий поток : 4945 Кбит/сек
Дата кодирования : UTC 2019-08-19 19:22:50
Программа кодирования : mkvmerge v9.5.0 ('Quiet Fire') 64bit
Библиотека кодирования : libebml v1.3.4 + libmatroska v1.4.5

Видео
Идентификатор : 1
Формат : AVC
Формат/Информация : Advanced Video Codec
Профиль формата : High@L4
Настройки формата : CABAC / 5 Ref Frames
Параметр CABAC формата : Да
Параметр RefFrames формата : 5 кадров
Идентификатор кодека : V_MPEG4/ISO/AVC
Продолжительность : 1 ч. 31 м.
Битрейт : 4560 Кбит/сек
Ширина : 1920 пикселей
Высота : 804 пикселя
Соотношение сторон : 2,40:1
Режим частоты кадров : Постоянный
Частота кадров : 24,000 кадра/сек
Цветовое пространство : YUV
Субдискретизация насыщенности : 4:2:0
Битовая глубина : 8 бит
Тип развёртки : Прогрессивная
Бит/(Пиксели*Кадры) : 0.123
Размер потока : 2,93 Гбайт (92%)
Заголовок : Sisendrovich(R)
Язык : English
Default : Да
Forced : Нет
Цветовой диапазон : Limited
Основные цвета : BT.709
Характеристики трансфера : BT.709
Коэффициенты матрицы : BT.709

Аудио
Идентификатор : 2
Формат : AC-3
Формат/Информация : Audio Coding 3
Параметр Endianness формата : Big
Идентификатор кодека : A_AC3
Продолжительность : 1 ч. 32 м.
Вид битрейта : Постоянный
Битрейт : 384 Кбит/сек
Каналы : 6 каналов
Расположение каналов : Front: L C R, Side: L R, LFE
Частота : 48,0 КГц
Частота кадров : 31,250 кадров/сек (1536 SPF)
Битовая глубина : 16 бит
Метод сжатия : С потерями
Задержка видео : -42 мс.
Размер потока : 253 Мбайт (8%)
Язык : Russian
Default : Да
Forced : Нет

Меню
00:00:00.000 : en:Глава 1
00:11:37.958 : en:Глава 2
00:20:01.041 : en:Глава 3
00:27:05.082 : en:Глава 4
00:35:25.832 : en:Глава 5
00:42:08.957 : en:Глава 6
00:47:49.957 : en:Глава 7
00:56:12.998 : en:Глава 8
01:02:28.748 : en:Глава 9
01:09:51.414 : en:Глава 10
01:13:29.205 : en:Глава 11
01:26:14.413 : en:Глава 12

pb.wtf



Скачать Мышеловка через торрент http://lostpix.com/thumbs/2019-08/19/8umv3etd4sx87apg0fjatl03f.png Скачать фильм Мышеловка через торрент бесплантно в хорошем качестве Описание: Для Сиро Бермудеса, промышлявшего воровством, открыть новенький внедорожник, припаркованный на тихой улице, — как два пальца об ... 9.5 10 12
Торрент: Зарегистрирован [2019-08-19 19:43] · скачан: 373 раз
Статус: √ проверено
Размер: 3.18 GB
Как cкачать? Как скачать Мышеловка через торрент | qTorrent

% Раздел Тема Автор DL S | L
Фильмы 2019-2020 [DVDrip, WEB-DLRip, HDrip] (DUB, MVO) [ 1.4 GB ] Мышеловка / 4x4 [2019 WEB-DLRip-AVC] bober100 Скачать
1 | 0
Фильмы 2019-2020 [DVDrip, WEB-DLRip, HDrip] (DUB, MVO) [ 745 MB ] Мышеловка / 4x4 [2019 WEB-DLRip] bober100 Скачать
2 | 0
Фильмы 2019-2020 [DVDrip, WEB-DLRip, HDrip] (DUB, MVO) [ 1.46 GB ] Мышеловка / 4x4 [2019 WEB-DLRip] bober100 Скачать
2 | 0

28-11-2019 20:33  

Отключить всю рекламу на сайте

20-08-2019 14:50 Мышеловка Скачать торрент  

заштампованный скучный сюжет. смотреть? ну не знаю... если уж уащпе нефик делать...pb.wtf



    Дорогой пользователь! Огромная просьба, поблагодарите релизера, оцените раздачу и оставьте свои комментарий, если Вы скачали Мышеловка через торрент бесплатно! Внесите свою лепту в развитие PiratBit!
    Комментировать посты могут только пользователи прошедшие не сложную регистрацию
    Показать сообщения:    

    Мышеловка через торрент
    Скачать бесплатно Мышеловка
    Мышеловка скачать торрент
    Мышеловка смотреть онлайн
    Cкачать фильм Мышеловка бесплатно
    Мышеловка скачать торрент в хорошем качестве
    Мышеловка смотреть онлайн бесплатно в хорошем качестве


    Вы не можете начинать темы
    Вы не можете отвечать на сообщения
    Вы не можете редактировать свои сообщения
    Вы не можете удалять свои сообщения
    Вы не можете голосовать в опросах
    Вы не можете прикреплять файлы к сообщениям
    Вы можете скачивать файлы