новый адрес
Ссылка на приватное зеркало всего за 1$. Внимание количество ограничено!!!

iTunes

1+1

iTunes

мы

WEB-DL

1

iTunes

Чернобыль

iTunes

Ральф против интернета

Лицензия

ПШазам

Лицензия

Оно 2

Лицензия

30
pack

Вам бонус

ВАЖНО

!!Акция!!

Alien_RageХит недели

RePack

Resident Evil 21

ИГРА 18+

pack

RePack

jed

!!Акция!!

Alien_Rage

RePack

fifa19

RePack

Assassins Creed: Odyssey

RePack

NEED FOR SPEED™ PAYBACK

3 сезон

9 сезон

Бесстыжие 9 сезон

Все сериалы

все сериалы на PB.wtf

RePack

FAR CRY 5
Ребята, катастрофически не хватает 1900р. для оплаты серверов за Октябрь (всвязи с блокировками трафик упал в 3 раза), 1-2р., выручайте.
  

Мышеловка / 4x4 (Мариано Кон) [2019, Триллер, криминал, WEB-DLRip] DUB [iTunes] pb.wtf

Мышеловка через торрент pb.wtf

Раздают: 4 [ 0 KB/s ]
Размер: 1.46 GB | Добавлен: 3 мес. 23 д. назад | Торрент скачан:287 раз
Скачать  

19-08-2019 19:50 Мышеловка Скачать торрент  

Мышеловка / 4x4
Год выпуска: 2019
Страна: Аргентина, Испания
Жанр: Триллер, криминал
Продолжительность: 01:32:00
Перевод: Дублированный | iTunes
Субтитры: отсутствуют

Режиссер: Мариано Кон

rating

В ролях: Питер Ланзани, Луис Брандони, Дади Бриева, Ноэлия Кастаньо, Густаво Родригес и др.

Описание: Для Сиро Бермудеса, промышлявшего воровством, открыть новенький внедорожник, припаркованный на тихой улице, — как два пальца об асфальт. Выломать компьютер, пошарить в бардачке — дело одной минуты. Помочиться на заднее сиденье, чтобы дополнительно отравить жизнь хозяину, — его фирменный стиль. Но вот дальше случилось невероятное: двери заблокировались, и Сиро оказался запертым в бронированной машине с пуленепробиваемыми и наглухо тонированными стеклами. Орать и пытаться вырваться бесполезно — никто не увидит и не услышит. Телефон разряжен. 40-градусная жара. Страх, истерика, отчаяние. А кошмар Сиро только начинался…

Качество: WEB-DLRip
Формат: AVI

Видео: Xvid 73, 720x304, ~1869 kbps, 24,000 fps
Аудио: русский, AC3, 5.1 ch, 48 kHz, 384 kbps | iTunes
скриншот  скриншот  скриншот  скриншот  скриншот  

Общее
Полное имя : E:Torrent2MyshelovkaWEBDLRip.avi
Формат : AVI
Формат/Информация : Audio Video Interleave
Профиль формата : OpenDML
Размер файла : 1,46 Гбайт
Продолжительность : 1 ч. 31 м.
Общий поток : 2265 Кбит/сек
Программа кодирования : XviD4PSP 6.0 / 53.6.0

Видео
Идентификатор : 0
Формат : MPEG-4 Visual
Профиль формата : Advanced Simple@L5
Настройки формата : BVOP1 / Custom Matrix
Параметр BVOP формата : 1
Параметр QPel формата : Нет
Параметр GMC формата : Без точки перехода
Параметр матрицы формата : Выборочная
Идентификатор кодека : XVID
Идентификатор кодека/Подсказка : XviD
Продолжительность : 1 ч. 31 м.
Битрейт : 1869 Кбит/сек
Ширина : 720 пикселей
Высота : 304 пикселя
Соотношение сторон : 2,35:1
Частота кадров : 24,000 кадра/сек
Цветовое пространство : YUV
Субдискретизация насыщенности : 4:2:0
Битовая глубина : 8 бит
Тип развёртки : Прогрессивная
Метод сжатия : С потерями
Бит/(Пиксели*Кадры) : 0.356
Размер потока : 1,20 Гбайт (82%)
Библиотека кодирования : XviD 73

Аудио
Идентификатор : 1
Формат : AC-3
Формат/Информация : Audio Coding 3
Параметр Endianness формата : Big
Идентификатор кодека : 2000
Продолжительность : 1 ч. 31 м.
Вид битрейта : Постоянный
Битрейт : 384 Кбит/сек
Каналы : 6 каналов
Расположение каналов : Front: L C R, Side: L R, LFE
Частота : 48,0 КГц
Частота кадров : 31,250 кадров/сек (1536 SPF)
Битовая глубина : 16 бит
Метод сжатия : С потерями
Размер потока : 253 Мбайт (17%)
Выравнивание : Соединение по промежуткам
Продолжительность промежутка : 32 мс. (0,77 видеокад

pb.wtf



Скачать Мышеловка через торрент http://lostpix.com/thumbs/2019-08/19/8umv3etd4sx87apg0fjatl03f.png Скачать фильм Мышеловка через торрент бесплантно в хорошем качестве Описание: Для Сиро Бермудеса, промышлявшего воровством, открыть новенький внедорожник, припаркованный на тихой улице, — как два пальца об ... 10 10 9
Торрент: Зарегистрирован [2019-08-19 19:50] · скачан: 287 раз
Статус: √ проверено
Размер: 1.46 GB
Как cкачать? Как скачать Мышеловка через торрент | qTorrent

% Раздел Тема Автор DL S | L
Фильмы 2019 [DVDrip, WEB-DLRip, HDrip] (DUB, MVO) [ 1.4 GB ] Мышеловка / 4x4 [2019 WEB-DLRip-AVC] bober100 Скачать
6 | 0
Фильмы 2019 [DVDrip, WEB-DLRip, HDrip] (DUB, MVO) [ 745 MB ] Мышеловка / 4x4 [2019 WEB-DLRip] bober100 Скачать
2 | 0
Фильмы (WEB-DL 720p, 1080p) [ 3.18 GB ] Мышеловка / 4x4 [2019 WEB-DL 1080p] bober100 Скачать
1 | 0

28-11-2019 20:33  

Отключить всю рекламу на сайте

    Дорогой пользователь! Огромная просьба, поблагодарите релизера, оцените раздачу и оставьте свои комментарий, если Вы скачали Мышеловка через торрент бесплатно! Внесите свою лепту в развитие PiratBit!
    Комментировать посты могут только пользователи прошедшие не сложную регистрацию
    Показать сообщения:    

    Мышеловка через торрент
    Скачать бесплатно Мышеловка
    Мышеловка скачать торрент
    Мышеловка смотреть онлайн
    Cкачать фильм Мышеловка бесплатно
    Мышеловка скачать торрент в хорошем качестве
    Мышеловка смотреть онлайн бесплатно в хорошем качестве


    Вы не можете начинать темы
    Вы не можете отвечать на сообщения
    Вы не можете редактировать свои сообщения
    Вы не можете удалять свои сообщения
    Вы не можете голосовать в опросах
    Вы не можете прикреплять файлы к сообщениям
    Вы можете скачивать файлы