новый адрес
Ссылка на приватное зеркало всего за 1$. Внимание количество ограничено!!!

iTunes

1+1

iTunes

мы

WEB-DL

1

iTunes

Чернобыль

iTunes

Ральф против интернета

Лицензия

ПШазам

Лицензия

Оно 2

Лицензия

30
pack

Вам бонус

ВАЖНО

!!Акция!!

Alien_RageХит недели

RePack

Resident Evil 21

ИГРА 18+

pack

RePack

jed

!!Акция!!

Alien_Rage

RePack

fifa19

RePack

Assassins Creed: Odyssey

RePack

NEED FOR SPEED™ PAYBACK

3 сезон

9 сезон

Бесстыжие 9 сезон

Все сериалы

все сериалы на PB.wtf

RePack

FAR CRY 5
Ребята, катастрофически не хватает 1900р. для оплаты серверов за Октябрь (всвязи с блокировками трафик упал в 3 раза), 1-2р., выручайте.
  

Проект «Итака» / Project Ithaca (Николас Хемфрис) [2019, фантастика, триллер, BDRip-AVC] DUB [iTunes] - ExKinoRay pb.wtf

Проект «Итака» через торрент pb.wtf

Раздают: 20 [ 162 KB/s ] Качают: 2 [ 274 KB/s ]
Размер: 1.66 GB | Добавлен: 3 мес. 23 д. назад | Торрент скачан:273 раза
Скачать  

20-08-2019 05:54 Проект «Итака» Скачать торрент  

Информация о фильме
Название: Проект «Итака»
Оригинальное название: Project Ithaca
Год выпуска: 2019
Жанр: Фантастика, триллер
Режиссер: Николас Хемфрис
В ролях: Джеймс Гэллэндерс, Дераг Кэмпбелл, Дэниэл Фазерс, Каролина Рейно, Алекс Вудс, Конима Паркинсон-Джонс, Тейлор Торн, Джон Новак, Джастин Джеймс Ремейкис, Ханна Голуэй

Описание: Шестеро незнакомых друг с другом людей оказываются в странном месте. Они не помнят, как сюда попали. Их тела связаны и они не могут пошевелиться. При попытке освободиться натяжение нитей только усиливается. Становится понятно, что они находятся на объекте внеземного происхождения. Однако зачем они здесь и чего от них хотят? Поодиночке они умрут, но если объединятся, то у них есть шанс найти дорогу домой.
rating

Страна: Канада
Студия: Hawkeye Pictures, Wild Media Entertainment
Продолжительность: 01:25:20
Перевод: Профессиональный (дублированный) | iTunes

Формат: MKV
Качество: BDRip-AVC
Видео: MPEG-4 AVC, 1024x428 (2.40:1), 23.976 fps, 1950 Kbps, 0.186 bit/pixel
Аудио #01: 48 kHz, AC3, 5.1, 384 Kbps | iTunes | RUS |
Аудио #03: 48 kHz, AC3, 5.1, 448 Kbps | Оригинал | ENG |
Субтитры: Английские
General
Unique ID : 247214396356936583826855574776908069996 (0xB9FBC2C7E699C6D3A7C00CB05F6BBC6C)
Complete name : D:\Project.Ithaca.2019.BDRip.AVC.ExKinoRay.mkv
Format : Matroska
Format version : Version 2
File size : 1.66 GiB
Duration : 1 h 25 min
Overall bit rate : 2 784 kb/s
Movie name : Project Ithaca 2019 from ExKinoRay
Encoded date : UTC 2019-08-20 05:11:29
Writing application : mkvmerge v5.6.0 ('Kenya Kane') built on May 27 2012 16:44:04
Writing library : libebml v1.2.3 + libmatroska v1.3.0

Video
ID : 1
Format : AVC
Format/Info : Advanced Video Codec
Format profile : High@L4.1
Format settings, CABAC : Yes
Format settings, ReFrames : 12 frames
Codec ID : V_MPEG4/ISO/AVC
Duration : 1 h 25 min
Bit rate : 1 950 kb/s
Width : 1 024 pixels
Height : 428 pixels
Display aspect ratio : 2.40:1
Frame rate mode : Constant
Frame rate : 23.976 (23976/1000) FPS
Color space : YUV
Chroma subsampling : 4:2:0
Bit depth : 8 bits
Scan type : Progressive
Bits/(Pixel*Frame) : 0.186
Stream size : 1.13 GiB (68%)
Title : Enigma
Writing library : x264 core 152 r2851 ba24899
Encoding settings : cabac=1 / ref=12 / deblock=1:-3:-2 / analyse=0x3:0x113 / me=umh / subme=10 / psy=1 / psy_rd=0.98:0.05 / mixed_ref=1 / me_range=32 / chroma_me=1 / trellis=2 / 8x8dct=1 / cqm=0 / deadzone=21,11 / fast_pskip=0 / chroma_qp_offset=-3 / threads=12 / lookahead_threads=3 / sliced_threads=0 / nr=0 / decimate=0 / interlaced=0 / bluray_compat=0 / constrained_intra=0 / bframes=10 / b_pyramid=2 / b_adapt=2 / b_bias=0 / direct=3 / weightb=1 / open_gop=0 / weightp=2 / keyint=240 / keyint_min=23 / scenecut=40 / intra_refresh=0 / rc=2pass / mbtree=0 / bitrate=1950 / ratetol=1.0 / qcomp=0.60 / qpmin=0 / qpmax=51 / qpstep=4 / cplxblur=20.0 / qblur=0.5 / ip_ratio=1.30 / pb_ratio=1.30 / aq=3:0.80
Language : English
Default : Yes
Forced : No
Color range : Limited
Color primaries : BT.709
Transfer characteristics : BT.709
Matrix coefficients : BT.709

Audio #1
ID : 2
Format : AC-3
Format/Info : Audio Coding 3
Mode extension : CM (complete main)
Format settings, Endianness : Big
Codec ID : A_AC3
Duration : 1 h 25 min
Bit rate mode : Constant
Bit rate : 384 kb/s
Channel(s) : 6 channels
Channel positions : Front: L C R, Side: L R, LFE
Sampling rate : 48.0 kHz
Frame rate : 31.250 FPS (1536 spf)
Compression mode : Lossy
Stream size : 234 MiB (14%)
Title : iTunes
Language : Russian
Default : Yes
Forced : No

Audio #2
ID : 3
Format : AC-3
Format/Info : Audio Coding 3
Mode extension : CM (complete main)
Format settings, Endianness : Big
Codec ID : A_AC3
Duration : 1 h 25 min
Bit rate mode : Constant
Bit rate : 448 kb/s
Channel(s) : 6 channels
Channel positions : Front: L C R, Side: L R, LFE
Sampling rate : 48.0 kHz
Frame rate : 31.250 FPS (1536 spf)
Compression mode : Lossy
Stream size : 273 MiB (16%)
Language : English
Default : No
Forced : No

Text #1
ID : 4
Format : UTF-8
Codec ID : S_TEXT/UTF8
Codec ID/Info : UTF-8 Plain Text
Language : English
Default : No
Forced : No

Text #2
ID : 5
Format : UTF-8
Codec ID : S_TEXT/UTF8
Codec ID/Info : UTF-8 Plain Text
Title : SDH
Language : English
Default : No
Forced : No

Menu
00:00:00.000 : en:00:00:00.000
00:05:25.325 : en:00:05:25.325
00:10:56.781 : en:00:10:56.781
00:14:21.110 : en:00:14:21.110
00:22:54.039 : en:00:22:54.039
00:24:20.250 : en:00:24:20.250
00:29:15.420 : en:00:29:15.420
00:37:22.824 : en:00:37:22.824
00:41:30.905 : en:00:41:30.905
00:47:24.133 : en:00:47:24.133
00:53:33.502 : en:00:53:33.502
00:56:50.365 : en:00:56:50.365
01:05:45.191 : en:01:05:45.191
01:09:35.671 : en:01:09:35.671
01:15:12.508 : en:01:15:12.508
01:17:42.658 : en:01:17:42.658


Релиз от:

Автор релиза: pb.wtf



Скачать Проект «Итака» через торрент https://i5.imageban.ru/out/2019/08/19/de290e5a9a2035c1ebf2adf152b44a5c.png Скачать фильм Проект «Итака» через торрент бесплантно в хорошем качестве Описание: Шестеро незнакомых друг с другом людей оказываются в странном месте. Они не помнят, как сюда попали. Их тела связаны и они не ... 10 10 8
Info! Золотая раздача, скачанное не засчитывается.
Торрент: Зарегистрирован [2019-08-20 05:54] · скачан: 273 раз
Статус: √ проверено
Размер: 1.66 GB
Как cкачать? Как скачать Проект «Итака» через торрент | qTorrent

28-11-2019 20:33  

Отключить всю рекламу на сайте

    Дорогой пользователь! Огромная просьба, поблагодарите релизера, оцените раздачу и оставьте свои комментарий, если Вы скачали Проект «Итака» через торрент бесплатно! Внесите свою лепту в развитие PiratBit!
    Комментировать посты могут только пользователи прошедшие не сложную регистрацию
    Показать сообщения:    

    Проект «Итака» через торрент
    Скачать бесплатно Проект «Итака»
    Проект «Итака» скачать торрент
    Проект «Итака» смотреть онлайн
    Cкачать фильм Проект «Итака» бесплатно
    Проект «Итака» скачать торрент в хорошем качестве
    Проект «Итака» смотреть онлайн бесплатно в хорошем качестве


    Вы не можете начинать темы
    Вы не можете отвечать на сообщения
    Вы не можете редактировать свои сообщения
    Вы не можете удалять свои сообщения
    Вы не можете голосовать в опросах
    Вы не можете прикреплять файлы к сообщениям
    Вы можете скачивать файлы