новый адрес пиратбит piratbit
Мега распродажа FORZA HORIZON 4 ULTIMATE+ВСЕ DLC+ОНЛАЙН всего за 499р. 349 руб. (супер цена). Внимание количество ограничено!!!

iTunes

1+1

iTunes

мы

iTunes

1

iTunes

Чернобыль

iTunes

Ральф против интернета

Лицензия

ПШазам

Лицензия

Игра престолов

Лицензия

30
pack

ВАЖНО

!!Акция!!

Alien_RageХит недели

RePack

Resident Evil 21

ИГРА 18+

pack

RePack

Metro:Exodus

!!Акция!!

Alien_Rage

RePack

fifa19

RePack

Assassins Creed: Odyssey

RePack

NEED FOR SPEED™ PAYBACK

3 сезон

9 сезон

Бесстыжие 9 сезон

Все сериалы

все сериалы на PB.wtf

RePack

FAR CRY 5
Ребята, катастрофически не хватает 1900р. для оплаты серверов за Октябрь (всвязи с блокировками трафик упал в 3 раза), 1-2р., выручайте.
  

Гори, гори ясно / Brightburn (Дэвид Яровески) [2019, ужасы, фантастика, триллер, драма, UHD BDRip 2160p] DUB (rus, ukr) [Лицензия] +MVO [СВ Студия] pb.wtf

Гори, гори ясно через торрент pb.wtf

Размер: 10.94 GB | Добавлен: 1 мес. 7 д. назад | Торрент скачан:0 раз
Скачать  

20-08-2019 06:16 Гори, гори ясно Скачать торрент  

Гори, гори ясно / Brightburn«Imagine What He Could Become»
Год выпуска: 2019
Страна: США
Жанр: ужасы, фантастика, триллер, драма
Продолжительность: 01:30:30
Перевод:

#1: Дублированный | Лицензия
#2: Профессиональный (многоголосый закадровый) | СВ Студия

Субтитры: Русские (Full, Forced), Украинские (Full), Английские

Режиссер: Дэвид Яровески

rating

В ролях: Элизабет Бэнкс, Джексон А. Данн, Дэвид Денман, Дженнифер Холлэнд, Мэтт Джонс, Мередит Хагнер, Бекки Уолстром, Грегори Алан Уильямс, Стив Эйджи, Эмми Хантер

Описание: Что, если потерпевший крушение на Земле инопланетный ребенок со сверхспособностями вместо того, чтобы стать героем для человечества, окажется чем-то гораздо более зловещим?

Качество: UHD BDRip 2160p
Формат: MKV

Видео: MPEG-4 AVC HDR, 15.4 Mбит/с, 3840x1608, 23.976 кадр/с, 10 Бит
Аудио#1: 48 kHz, AC3, 5.1, 640 Kbps | Лицензия | RUS |
Аудио#2: 48 kHz, AC3, 2.0, 192 Kbps | СВ Студия | RUS |
Аудио#3: 48 kHz, AC3, 5.1, 384 Kbps | iTunes | UKR |
Аудио#4: 48 kHz, AC3, 2.0, 640 Kbps | Оригинал | ENG |
скриншот  скриншот  скриншот  

скриншот  скриншот  скриншот  

Общее
Уникальный идентификатор : 171348172191384825110721021437664093909 (0x80E8752390D75CAD8B2F05976200E6D5)
Полное имя : G:\Brightburn.2019.BDRip.2160p.x265.10bit.HDR.Master5 .mkv
Формат : Matroska
Версия формата : Version 4
Размер файла : 10,9 Гбайт
Продолжительность : 1 ч. 30 м.
Общий поток : 17,3 Мбит/сек
Название фильма : Brightburn.2019.BDRip.2160p.x265.10bit.HDR.Master5
Дата кодирования : UTC 2019-10-06 17:08:54
Программа кодирования : mkvmerge v7.9.0 ('Birds') 64bit
Библиотека кодирования : libebml v1.3.1 + libmatroska v1.4.2

Видео
Идентификатор : 1
Формат : HEVC
Формат/Информация : High Efficiency Video Coding
Коммерческое название : HDR10
Профиль формата : Main 10@L5.1@High
Идентификатор кодека : V_MPEGH/ISO/HEVC
Продолжительность : 1 ч. 30 м.
Битрейт : 15,4 Мбит/сек
Ширина : 3840 пикселей
Высота : 1608 пикселей
Соотношение сторон : 2,40:1
Режим частоты кадров : Постоянный
Частота кадров : 23,976 (24000/1001) кадра/сек
Цветовое пространство : YUV
Субдискретизация насыщенности : 4:2:0
Битовая глубина : 10 бит
Бит/(Пиксели*Кадры) : 0.104
Размер потока : 9,77 Гбайт (89%)
Заголовок : Brightburn.2019.BDRip.2160p.x265.10bit.HDR.Master5
Язык : English
Default : Да
Forced : Нет
Цветовой диапазон : Limited
Основные цвета : BT.2020
Характеристики трансфера : PQ
Коэффициенты матрицы : BT.2020 non-constant
MasteringDisplay_ColorPrimaries : Display P3
MasteringDisplay_Luminance : min: 0.0050 cd/m2, max: 4000 cd/m2
MaxCLL : 2145 cd/m2
MaxFALL : 385 cd/m2

Аудио #1
Идентификатор : 2
Формат : AC-3
Формат/Информация : Audio Coding 3
Коммерческое название : Dolby Digital
Идентификатор кодека : A_AC3
Продолжительность : 1 ч. 30 м.
Вид битрейта : Постоянный
Битрейт : 640 Кбит/сек
Каналы : 6 каналов
Channel layout : L R C LFE Ls Rs
Частота : 48,0 КГц
Частота кадров : 31,250 кадров/сек (1536 SPF)
Битовая глубина : 16 бит
Метод сжатия : С потерями
Размер потока : 414 Мбайт (4%)
Заголовок : Dub License
Язык : Russian
ServiceKind/String : Complete Main
Default : Да
Forced : Да

Аудио #2
Идентификатор : 3
Формат : AC-3
Формат/Информация : Audio Coding 3
Коммерческое название : Dolby Digital
Идентификатор кодека : A_AC3
Продолжительность : 1 ч. 30 м.
Вид битрейта : Постоянный
Битрейт : 192 Кбит/сек
Каналы : 2 канала
Channel layout : L R
Частота : 48,0 КГц
Частота кадров : 31,250 кадров/сек (1536 SPF)
Битовая глубина : 16 бит
Метод сжатия : С потерями
Размер потока : 124 Мбайт (1%)
Заголовок : MVO bHDRezka StudioB
Язык : Russian
ServiceKind/String : Complete Main
Default : Нет
Forced : Нет

Аудио #3
Идентификатор : 4
Формат : AC-3
Формат/Информация : Audio Coding 3
Коммерческое название : Dolby Digital
Идентификатор кодека : A_AC3
Продолжительность : 1 ч. 30 м.
Вид битрейта : Постоянный
Битрейт : 384 Кбит/сек
Каналы : 6 каналов
Channel layout : L R C LFE Ls Rs
Частота : 48,0 КГц
Частота кадров : 31,250 кадров/сек (1536 SPF)
Битовая глубина : 16 бит
Метод сжатия : С потерями
Размер потока : 249 Мбайт (2%)
Заголовок : Dub biTunes UkrainianB
Язык : Ukrainian
ServiceKind/String : Complete Main
Default : Нет
Forced : Нет

Аудио #4
Идентификатор : 5
Формат : AC-3
Формат/Информация : Audio Coding 3
Коммерческое название : Dolby Digital
Идентификатор кодека : A_AC3
Продолжительность : 1 ч. 30 м.
Вид битрейта : Постоянный
Битрейт : 640 Кбит/сек
Каналы : 6 каналов
Channel layout : L R C LFE Ls Rs
Частота : 48,0 КГц
Частота кадров : 31,250 кадров/сек (1536 SPF)
Битовая глубина : 16 бит
Метод сжатия : С потерями
Размер потока : 414 Мбайт (4%)
Заголовок : Original
Язык : English
ServiceKind/String : Complete Main
Default : Нет
Forced : Нет

Текст #1
Идентификатор : 6
Формат : UTF-8
Идентификатор кодека : S_TEXT/UTF8
Идентификатор кодека/Информация : UTF-8 Plain Text
Продолжительность : 1 ч. 29 м.
Битрейт : 0 бит/сек
ElementCount : 11
Размер потока : 620 байт (0%)
Заголовок : Forced biTunes RussiaB
Язык : Russian
Default : Да
Forced : Да

Текст #2
Идентификатор : 7
Формат : UTF-8
Идентификатор кодека : S_TEXT/UTF8
Идентификатор кодека/Информация : UTF-8 Plain Text
Продолжительность : 1 ч. 29 м.
Битрейт : 61 бит/сек
ElementCount : 895
Размер потока : 40,1 Кбайт (0%)
Заголовок : Full biTunes RussiaB
Язык : Russian
Default : Нет
Forced : Нет

Текст #3
Идентификатор : 8
Формат : UTF-8
Идентификатор кодека : S_TEXT/UTF8
Идентификатор кодека/Информация : UTF-8 Plain Text
Продолжительность : 1 ч. 24 м.
Битрейт : 61 бит/сек
ElementCount : 892
Размер потока : 38,3 Кбайт (0%)
Заголовок : Full biTunes UkrainianB
Язык : Ukrainian
Default : Нет
Forced : Нет

Текст #4
Идентификатор : 9
Формат : UTF-8
Идентификатор кодека : S_TEXT/UTF8
Идентификатор кодека/Информация : UTF-8 Plain Text
Продолжительность : 1 ч. 27 м.
Битрейт : 44 бит/сек
ElementCount : 1036
Размер потока : 28,2 Кбайт (0%)
Заголовок : Full
Язык : English
Default : Нет
Forced : Нет

Меню
00:00:00.000 : :绗?01 绔?
00:03:20.700 : :绗?02 绔?
00:07:04.633 : :绗?03 绔?
00:12:30.792 : :绗?04 绔?
00:17:47.066 : :绗?05 绔?
00:24:23.170 : :绗?06 绔?
00:30:28.910 : :绗?07 绔?
00:38:06.784 : :绗?08 绔?
00:43:11.672 : :绗?09 绔?
00:49:25.796 : :绗?10 绔?
00:56:53.535 : :绗?11 绔?
01:00:12.359 : :绗?12 绔?
01:05:22.127 : :绗?13 绔?
01:08:16.092 : :绗?14 绔?
01:12:20.586 : :绗?15 绔?
01:17:28.894 : :绗?16 绔?

pb.wtf



Скачать Гори, гори ясно через торрент https://img15.lostpic.net/2019/08/15/cffae810cb7796da8f1916eb000d8cb8.jpg Скачать фильм Гори, гори ясно через торрент бесплантно в хорошем качестве Описание: Что, если потерпевший крушение на Земле инопланетный ребенок со сверхспособностями вместо того, чтобы стать героем для ... 8.9 10 8
Торрент: Зарегистрирован [2019-10-06 18:05] · скачан: 0 раз
Статус: √ проверено
Размер: 10.94 GB
Как cкачать? Как скачать Гори, гори ясно через торрент | qTorrent

% Раздел Тема Автор DL S | L
Ultra HD (UHD: 2K, 4K, 8K) — видео сверхвысокой чёткости [ 50.87 GB ] Гори гори ясно / Brightburn [2019 UHD Blu-Ray EUR 2160p] DUB [] bober100 Скачать
2 | 0
Фильмы [HD 720p, 1080p] (Хороший звук DUB, MVO) [ 9.77 GB ] Гори гори ясно / Brightburn [2019 BDRip 1080p] DUB [] +MVO [СВ Студия] bober100 Скачать
2 | 0
Фильмы 2019 [DVDrip, WEB-DLRip, HDrip] (DUB, MVO) [ 1.46 GB ] Гори гори ясно / Brightburn [2019 BDRip] - [] Twi7ter Скачать
25 | 3
Фильмы [HD 720p, 1080p] (Хороший звук DUB, MVO) [ 4.34 GB ] Гори гори ясно / Brightburn [2019 BDRip 720p] DUB [] +MVO [СВ Студия] bober100 Скачать
4 | 0
Ultra HD (UHD: 2K, 4K, 8K) — видео сверхвысокой чёткости [ 40.17 GB ] Гори гори ясно / Brightburn [2019 UHD BDRemux 2160p] DUB [] + MVO [СВ Студия] sheker187 Скачать
1 | 0
Фильмы (WEB-DL 720p, 1080p) [ 3.33 GB ] Гори гори ясно / Brightburn [2019 WEB-DL 1080p] +MVO [СВ Студия] bober100 Скачать
20 | 0
Фильмы (WEB-DL 720p, 1080p) [ 2.22 GB ] Гори гори ясно / Brightburn [2019 WEB-DL 720p] bober100 Скачать
12 | 0


Последний раз редактировалось: bober100 (2019-10-06 18:08), всего редактировалось 2 раз(а)


>> Регистрируемся здесь <<






Отзывы и комментарии о схеме читаем и пишем здесь: ---> Отзывы и комментарии о схеме

Новые благодарочки в телеграм довольных пользователей:
скриншот   скриншот   скриншот   скриншот   скриншот

05-09-2019 15:56 Гори, гори ясно Скачать торрент  

Интересный фильм pb.wtf



    Дорогой пользователь! Огромная просьба, поблагодарите релизера, оцените раздачу и оставьте свои комментарий, если Вы скачали Гори, гори ясно через торрент бесплатно! Внесите свою лепту в развитие PiratBit!
    Комментировать посты могут только пользователи прошедшие не сложную регистрацию
    Показать сообщения:    

    Гори, гори ясно через торрент
    Скачать бесплатно Гори, гори ясно
    Гори, гори ясно скачать торрент
    Гори, гори ясно смотреть онлайн
    Cкачать фильм Гори, гори ясно бесплатно
    Гори, гори ясно скачать торрент в хорошем качестве
    Гори, гори ясно смотреть онлайн бесплатно в хорошем качестве


    Вы не можете начинать темы
    Вы не можете отвечать на сообщения
    Вы не можете редактировать свои сообщения
    Вы не можете удалять свои сообщения
    Вы не можете голосовать в опросах
    Вы не можете прикреплять файлы к сообщениям
    Вы можете скачивать файлы