новый адрес
Ссылка на приватное зеркало всего за 1$. Внимание количество ограничено!!!

iTunes

1+1

iTunes

мы

WEB-DL

1

iTunes

Чернобыль

iTunes

Ральф против интернета

Лицензия

ПШазам

Лицензия

Оно 2

Лицензия

30
pack

Вам бонус

ВАЖНО

!!Акция!!

Alien_RageХит недели

RePack

Resident Evil 21

ИГРА 18+

pack

RePack

jed

!!Акция!!

Alien_Rage

RePack

fifa19

RePack

Assassins Creed: Odyssey

RePack

NEED FOR SPEED™ PAYBACK

3 сезон

9 сезон

Бесстыжие 9 сезон

Все сериалы

все сериалы на PB.wtf

RePack

FAR CRY 5
Ребята, катастрофически не хватает 1900р. для оплаты серверов за Октябрь (всвязи с блокировками трафик упал в 3 раза), 1-2р., выручайте.
  

Стёжки-дорожки (Олег Борисов, Артур Войтецкий) [1963, СССР, мелодрама, комедия, SATRip от AVP Studio] pb.wtf

Стёжки-дорожки через торрент pb.wtf

Раздают: 2 [ 0 KB/s ]
Размер: 745 MB | Добавлен: 3 мес. 20 д. назад | Торрент скачан:9 раз
Скачать  

20-08-2019 08:10 Стёжки-дорожки Скачать торрент  

Стёжки-дорожки
Страна: СССР
Производство: Киностудия им. Довженко

Жанр: мелодрама, комедия
Год выпуска: 1963
Продолжительность: 01:05:36

Перевод: Не требуется
Cубтитры: нет
Оригинальная аудиодорожка: русский

Режиссер: Олег Борисов, Артур Войтецкий

В ролях:
Олег Борисов, Евгений Весник, Борис Бибиков, Любовь Стриженова, Павел Шпрингфельд, Сергей Шеметило, Владимир Гусев, Лариса Буркова, Николай Яковченко...
Об актёрах подробней

Описание:
Непрестижную специальность бухгалтера получил мечтатель и изобретатель в душе Роман Калинка. И хотя в родном селе и дядя-председатель, и старый бухгалтер Калистрат симпатизирует ему, и любовные отношения вроде зарождаются, но не может беспокойная душа выдумщика здесь существовать и жаждет выхода: в город, учиться…

Исходник: DVB
Качество видео: SATRip
Формат видео: AVI

Видео: 688x512 (4:3), 25,000 кадров/сек, XviD ~ 1385 kbps avg, 0.157 bit/pixel
Аудио: 48 kHz, Dolby Digital AC3 2.0, 192 kbps

Раздача от:
Общее
Полное имя : Styozhki-dorozhki.1963.SATRip_[New-team]_by_AVP_Studio.avi
Формат : AVI
Формат/Информация : Audio Video Interleave
Размер файла : 745 Мбайт
Продолжительность : 1 ч. 5 м.
Общий поток : 1587 Кбит/сек
Программа кодирования : VirtualDubMod 1.5.10.3 | www.virtualdub-fr.org || (build 2550/release)
Библиотека кодирования : VirtualDubMod build 2550/release

Видео
Идентификатор : 0
Формат : MPEG-4 Visual
Профиль формата : Advanced Simple@L5
Настройки формата : BVOP1 / Custom Matrix
Параметр BVOP формата : 1
Параметр QPel формата : Нет
Параметр GMC формата : Без точки перехода
Параметр матрицы формата : Выборочная
Идентификатор кодека : XVID
Идентификатор кодека/Подсказка : XviD
Продолжительность : 1 ч. 5 м.
Битрейт : 1385 Кбит/сек
Ширина : 688 пикселей
Высота : 512 пикселей
Соотношение сторон : 4:3
Частота кадров : 25,000 кадров/сек
Цветовое пространство : YUV
Субдискретизация насыщенности : 4:2:0
Битовая глубина : 8 бит
Тип развёртки : Прогрессивная
Метод сжатия : С потерями
Бит/(Пиксели*Кадры) : 0.157
Размер потока : 650 Мбайт (87%)
Библиотека кодирования : XviD 73

Аудио
Идентификатор : 1
Формат : AC-3
Формат/Информация : Audio Coding 3
Коммерческое название : Dolby Digital
Идентификатор кодека : 2000
Продолжительность : 1 ч. 5 м.
Вид битрейта : Постоянный
Битрейт : 192 Кбит/сек
Каналы : 2 канала
ChannelLayout : L R
Частота : 48,0 КГц
Частота кадров : 31,250 кадров/сек (1536 SPF)
Битовая глубина : 16 бит
Метод сжатия : С потерями
Размер потока : 90,1 Мбайт (12%)
Выравнивание : Разделение по промежуткам
Продолжительность промежутка : 40 мс. (1,00 видеокадр)
Время предзагрузки промежутка : 500 мс.
pb.wtf



Скачать Стёжки-дорожки через торрент http://picplus.ru/img/1908/20/51c52540.png Скачать фильм Стёжки-дорожки через торрент бесплантно в хорошем качестве Описание:Непрестижную специальность бухгалтера получил мечтатель и изобретатель в душе Роман Калинка. И хотя в родном селе и ... 10 10 1
Торрент: Зарегистрирован [2019-08-20 08:10] · скачан: 9 раз
Статус: √ проверено
Размер: 745 MB
Как cкачать? Как скачать Стёжки-дорожки через торрент | qTorrent

% Раздел Тема Автор DL S | L
Кино СССР [ 745 MB ] Стёжки-дорожки [1963 СССР SATRip-AVC от AVP Studio] AVP Studio Скачать
5 | 0

28-11-2019 20:33  

Отключить всю рекламу на сайте

    Дорогой пользователь! Огромная просьба, поблагодарите релизера, оцените раздачу и оставьте свои комментарий, если Вы скачали Стёжки-дорожки через торрент бесплатно! Внесите свою лепту в развитие PiratBit!
    Комментировать посты могут только пользователи прошедшие не сложную регистрацию
    Показать сообщения:    

    Стёжки-дорожки через торрент
    Скачать бесплатно Стёжки-дорожки
    Стёжки-дорожки скачать торрент
    Стёжки-дорожки смотреть онлайн
    Cкачать фильм Стёжки-дорожки бесплатно
    Стёжки-дорожки скачать торрент в хорошем качестве
    Стёжки-дорожки смотреть онлайн бесплатно в хорошем качестве


    Вы не можете начинать темы
    Вы не можете отвечать на сообщения
    Вы не можете редактировать свои сообщения
    Вы не можете удалять свои сообщения
    Вы не можете голосовать в опросах
    Вы не можете прикреплять файлы к сообщениям
    Вы можете скачивать файлы