новый адрес
Ссылка на приватное зеркало всего за 1$. Внимание количество ограничено!!!

iTunes

1+1

iTunes

мы

WEB-DL

1

iTunes

Чернобыль

iTunes

Ральф против интернета

Лицензия

ПШазам

Лицензия

Оно 2

Лицензия

30
pack

Вам бонус

ВАЖНО

!!Акция!!

Alien_RageХит недели

RePack

Resident Evil 21

ИГРА 18+

pack

RePack

jed

!!Акция!!

Alien_Rage

RePack

fifa19

RePack

Assassins Creed: Odyssey

RePack

NEED FOR SPEED™ PAYBACK

3 сезон

9 сезон

Бесстыжие 9 сезон

Все сериалы

все сериалы на PB.wtf

RePack

FAR CRY 5
Ребята, катастрофически не хватает 1900р. для оплаты серверов за Октябрь (всвязи с блокировками трафик упал в 3 раза), 1-2р., выручайте.
  

Мышеловка / 4x4 (Мариано Кон) [2019, Триллер, криминал, WEB-DLRip-AVC] DUB [iTunes] pb.wtf

Мышеловка через торрент pb.wtf

Раздают: 5 [ 0 KB/s ]
Размер: 1.4 GB | Добавлен: 3 мес. 23 д. назад | Торрент скачан:354 раза
Скачать  

20-08-2019 09:44 Мышеловка Скачать торрент  

Мышеловка / 4x4
Год выпуска: 2019
Страна: Аргентина, Испания
Жанр: Триллер, криминал
Продолжительность: 01:32:00
Перевод: Дублированный | iTunes
Субтитры: отсутствуют

Режиссер: Мариано Кон

rating

В ролях: Питер Ланзани, Луис Брандони, Дади Бриева, Ноэлия Кастаньо, Густаво Родригес и др.

Описание: Для Сиро Бермудеса, промышлявшего воровством, открыть новенький внедорожник, припаркованный на тихой улице, — как два пальца об асфальт. Выломать компьютер, пошарить в бардачке — дело одной минуты. Помочиться на заднее сиденье, чтобы дополнительно отравить жизнь хозяину, — его фирменный стиль. Но вот дальше случилось невероятное: двери заблокировались, и Сиро оказался запертым в бронированной машине с пуленепробиваемыми и наглухо тонированными стеклами. Орать и пытаться вырваться бесполезно — никто не увидит и не услышит. Телефон разряжен. 40-градусная жара. Страх, истерика, отчаяние. А кошмар Сиро только начинался…

Качество: WEB-DLRip-AVC
Формат: MKV

Видео: 1024x428 (2.40:1), 24,000 fps, x264 ~1 801 kbps avg, 0.171 bit/pixel
Аудио: 48 kHz, AC3 Dolby Digital, 3/2 (L,C,R,l,r) + LFE ch, ~384.00 kbps avg | RUS (iTunes)
скриншот  скриншот  скриншот  скриншот  скриншот  

Общее
Уникальный идентификатор : 13122773375059547435245070525779121674 (0x9DF5AAE2378519EEF4F5A4B93C7960A)
Полное имя : F:\OlLanDGroup\4x4.2019.WEB-DLRip(AVC).OllanDGroup.mkv
Формат : Matroska
Версия формата : Version 4 / Version 2
Размер файла : 1,40 Гбайт
Продолжительность : 1 ч. 32 м.
Общий поток : 2184 Кбит/сек
Название фильма : 4x4.2019 #TorpedoUK#
Дата кодирования : UTC 2019-08-20 07:16:03
Программа кодирования : mkvmerge v29.0.0 ('Like It Or Not') 64-bit
Библиотека кодирования : libebml v1.3.6 + libmatroska v1.4.9

Видео
Идентификатор : 1
Формат : AVC
Формат/Информация : Advanced Video Codec
Профиль формата : High@L4.1
Параметр CABAC формата : Да
Параметр ReFrames формата : 10 кадров
Идентификатор кодека : V_MPEG4/ISO/AVC
Продолжительность : 1 ч. 31 м.
Битрейт : 1801 Кбит/сек
Ширина : 1024 пикселя
Высота : 428 пикселей
Соотношение сторон : 2,40:1
Режим частоты кадров : Постоянный
Частота кадров : 24,000 кадра/сек
Цветовое пространство : YUV
Субдискретизация насыщенности : 4:2:0
Битовая глубина : 8 бит
Тип развёртки : Прогрессивная
Бит/(Пиксели*Кадры) : 0.171
Размер потока : 1,16 Гбайт (82%)
Библиотека кодирования : x264 core 146 r2538 121396c
Настройки программы : cabac=1 / ref=10 / deblock=1:-2:-3 / analyse=0x3:0x113 / me=umh / subme=10 / psy=1 / psy_rd=0.94:0.08 / mixed_ref=1 / me_range=48 / chroma_me=1 / trellis=2 / 8x8dct=1 / cqm=0 / deadzone=21,11 / fast_pskip=1 / chroma_qp_offset=-3 / threads=6 / lookahead_threads=1 / sliced_threads=0 / nr=0 / decimate=1 / interlaced=0 / bluray_compat=0 / constrained_intra=0 / bframes=11 / b_pyramid=2 / b_adapt=2 / b_bias=0 / direct=3 / weightb=1 / open_gop=0 / weightp=2 / keyint=240 / keyint_min=24 / scenecut=40 / intra_refresh=0 / rc_lookahead=40 / rc=2pass / mbtree=0 / bitrate=1801 / ratetol=1.0 / qcomp=0.60 / qpmin=0 / qpmax=69 / qpstep=4 / cplxblur=20.0 / qblur=0.5 / vbv_maxrate=50000 / vbv_bufsize=62500 / nal_hrd=none / filler=0 / ip_ratio=1.40 / pb_ratio=1.30 / aq=1:1.00
Язык : English
Default : Да
Forced : Нет

Аудио
Идентификатор : 2
Формат : AC-3
Формат/Информация : Audio Coding 3
Расширение режима : CM (complete main)
Параметр Endianness формата : Big
Идентификатор кодека : A_AC3
Продолжительность : 1 ч. 32 м.
Вид битрейта : Постоянный
Битрейт : 384 Кбит/сек
Каналы : 6 каналов
Расположение каналов : Front: L C R, Side: L R, LFE
Частота : 48,0 КГц
Частота кадров : 31,250 кадров/сек (1536 spf)
Битовая глубина : 16 бит
Метод сжатия : С потерями
Размер потока : 253 Мбайт (18%)
Заголовок : DUB [iTunes]
Язык : Russian
Default : Да
Forced : Нет

Меню
00:00:00.000 : en:Глава 1
00:11:37.958 : en:Глава 2
00:20:01.041 : en:Глава 3
00:27:05.082 : en:Глава 4
00:35:25.832 : en:Глава 5
00:42:08.957 : en:Глава 6
00:47:49.957 : en:Глава 7
00:56:12.998 : en:Глава 8
01:02:28.748 : en:Глава 9
01:09:51.414 : en:Глава 10
01:13:29.205 : en:Глава 11
01:26:14.413 : en:Глава 12

pb.wtf



Скачать Мышеловка через торрент https://i90.fastpic.ru/big/2019/0820/db/2b92a32650cd2fd1198103b9182477db.jpg Скачать фильм Мышеловка через торрент бесплантно в хорошем качестве Описание: Для Сиро Бермудеса, промышлявшего воровством, открыть новенький внедорожник, припаркованный на тихой улице, — как два пальца об ... 10 10 5
Торрент: Зарегистрирован [2019-08-20 09:44] · скачан: 354 раз
Статус: √ проверено
Размер: 1.4 GB
Как cкачать? Как скачать Мышеловка через торрент | qTorrent

% Раздел Тема Автор DL S | L
Фильмы 2019 [DVDrip, WEB-DLRip, HDrip] (DUB, MVO) [ 745 MB ] Мышеловка / 4x4 [2019 WEB-DLRip] bober100 Скачать
1 | 0
Фильмы (WEB-DL 720p, 1080p) [ 3.18 GB ] Мышеловка / 4x4 [2019 WEB-DL 1080p] bober100 Скачать
2 | 0
Фильмы 2019 [DVDrip, WEB-DLRip, HDrip] (DUB, MVO) [ 1.46 GB ] Мышеловка / 4x4 [2019 WEB-DLRip] bober100 Скачать
5 | 0

28-11-2019 20:33  

Отключить всю рекламу на сайте

21-08-2019 17:46 Мышеловка Скачать торрент  

на 4 из 10, не сильно советую, можно смотреть если больше нечего смотретьpb.wtf



24-08-2019 20:45 Мышеловка Скачать торрент  

не понравился.Лучше на эту тему "куджо" по роману стивена кингаpb.wtf



    Дорогой пользователь! Огромная просьба, поблагодарите релизера, оцените раздачу и оставьте свои комментарий, если Вы скачали Мышеловка через торрент бесплатно! Внесите свою лепту в развитие PiratBit!
    Комментировать посты могут только пользователи прошедшие не сложную регистрацию
    Показать сообщения:    

    Мышеловка через торрент
    Скачать бесплатно Мышеловка
    Мышеловка скачать торрент
    Мышеловка смотреть онлайн
    Cкачать фильм Мышеловка бесплатно
    Мышеловка скачать торрент в хорошем качестве
    Мышеловка смотреть онлайн бесплатно в хорошем качестве


    Вы не можете начинать темы
    Вы не можете отвечать на сообщения
    Вы не можете редактировать свои сообщения
    Вы не можете удалять свои сообщения
    Вы не можете голосовать в опросах
    Вы не можете прикреплять файлы к сообщениям
    Вы можете скачивать файлы