Ссылка на приватное зеркало нашего сайта всего за 1$. Внимание количество ограничено!!!

2 сезон

iTunes

1 сезон

1

2 сезон

2 сезон

iTunes

1 сезон

RePack

30

Ultimate

ВАЖНО

ИГРА 18+

pack

RePack

MK11
pack

Забери бонус

RePack

jed

!!Акция!!

Alien_Rage

RePack

fifa19

RePack

Assassins Creed: Odyssey

RePack

NEED FOR SPEED™ PAYBACK

4 сезон

9 сезон

Бесстыжие 9 сезон

Все сериалы

все сериалы на PB.wtf

RePack

FAR CRY 5
  

Люди в черном: Интернэшнл / Men in Black International (Ф. Гэри Грей) [2019, фантастика, боевик, комедия, приключения, WEB-DL 1080p] MVO [HDRezka Studio] - ExKinoRay pb.wtf

Люди в черном: Интернэшнл через торрент pb.wtf

Раздают: 3 [ 0 KB/s ]
Размер: 4.48 GB | Добавлен: 1 год 3 мес. назад | Торрент скачан:470 раз
Скачать  

21-08-2019 02:43 Люди в черном: Интернэшнл Скачать торрент  

Информация о фильме
Название: Люди в черном: Интернэшнл
Оригинальное название: Men in Black International
Год выхода: 2019
Жанр: Фантастика, боевик, комедия, приключения
Режиссер: Ф. Гэри Грей
В ролях: Тесса Томпсон, Крис Хемсворт, Кумэйл Нанджиани, Ребекка Фергюсон (II), Эмма Томпсон, Лиам Нисон, Рейф Сполл, Кайван Новак, Спенсер Уайлдинг, Марси Хэрриэл, Джесс Радомска, Виктория Фэйт, Аня Совински, Инни Клемонс, Стивен Уайт, Джефф Ким

Описание: Люди в черном, тайная организация на страже покоя и безопасности Земли, уже не раз защищали нас от нападения отбросов Вселенной. На этот раз самая большая опасность для мирового сообщества, которой агентам предстоит противостоять - шпион в их рядах.

rating

Страна: Великобритания, США
Студия: Columbia Pictures, Sony Pictures Entertainment (SPE), Amblin Entertainment
Продолжительность: 01:54:48
Перевод: Профессиональный многоголосый (HDRezka Studio)

Качество: WEB-DL 1080p
Видео: MPEG-4 AVC, 4899 Kбит/с, 1920x952, 23.976 кадр/с
Аудио #01: 48 kHz, AC3, 2.0, 192 Kbps | MVO | RUS |
Аудио #02: 48 kHz, AC3, 5.1, 384 Kbps | Оригинал | ENG |
Субтитры: Aнглийские
General
Unique ID : 170552299427401787429995879397999004783 (0x804F2D95056D9A0885D029FD0E504C6F)
Complete name : F:\Men.in.Black.International.2019.1080p.WEB-DL.DD5.1.H264-FGT\Men.in.Black.International.2019.MVO.1080p.WEB-DL.ExKinoRay.mkv
Format : Matroska
Format version : Version 2
File size : 4.48 GiB
Duration : 1 h 54 min
Overall bit rate : 5 586 kb/s
Movie name : Men in Black International 2019 from ExKinoray
Encoded date : UTC 2019-08-21 01:10:55
Writing application : mkvmerge v5.6.0 ('Kenya Kane') built on May 27 2012 16:44:04
Writing library : libebml v1.2.3 + libmatroska v1.3.0

Video
ID : 1
Format : AVC
Format/Info : Advanced Video Codec
Format profile : High@L4
Format settings, CABAC : Yes
Format settings, ReFrames : 4 frames
Codec ID : V_MPEG4/ISO/AVC
Duration : 1 h 54 min
Bit rate : 4 899 kb/s
Width : 1 920 pixels
Height : 952 pixels
Display aspect ratio : 2.017
Frame rate mode : Constant
Frame rate : 23.976 (24000/1001) FPS
Color space : YUV
Chroma subsampling : 4:2:0
Bit depth : 8 bits
Scan type : Progressive
Bits/(Pixel*Frame) : 0.112
Stream size : 3.93 GiB (88%)
Title : Men.in.Black.International.2019.1080p.WEB-DL
Language : English
Default : Yes
Forced : No
Color range : Limited
Color primaries : BT.709
Transfer characteristics : BT.709
Matrix coefficients : BT.709

Audio #1
ID : 2
Format : AC-3
Format/Info : Audio Coding 3
Mode extension : CM (complete main)
Format settings, Endianness : Big
Codec ID : A_AC3
Duration : 1 h 54 min
Bit rate mode : Constant
Bit rate : 192 kb/s
Channel(s) : 2 channels
Channel positions : Front: L R
Sampling rate : 48.0 kHz
Frame rate : 31.250 FPS (1536 spf)
Compression mode : Lossy
Stream size : 158 MiB (3%)
Title : MVO (HDRezka Studio)
Language : Russian
Default : Yes
Forced : No

Audio #2
ID : 3
Format : AC-3
Format/Info : Audio Coding 3
Mode extension : CM (complete main)
Format settings, Endianness : Big
Codec ID : A_AC3
Duration : 1 h 54 min
Bit rate mode : Constant
Bit rate : 384 kb/s
Channel(s) : 6 channels
Channel positions : Front: L C R, Side: L R, LFE
Sampling rate : 48.0 kHz
Frame rate : 31.250 FPS (1536 spf)
Compression mode : Lossy
Stream size : 315 MiB (7%)
Title : Original
Language : English
Default : No
Forced : No

Text #1
ID : 4
Format : UTF-8
Codec ID : S_TEXT/UTF8
Codec ID/Info : UTF-8 Plain Text
Title : Full
Language : English
Default : No
Forced : No

Text #2
ID : 5
Format : UTF-8
Codec ID : S_TEXT/UTF8
Codec ID/Info : UTF-8 Plain Text
Title : SDH
Language : English
Default : No
Forced : No

Menu
00:00:00.000 : en:1
00:07:57.686 : en:2
00:15:32.098 : en:3
00:20:08.581 : en:4
00:27:16.133 : en:5
00:34:28.647 : en:6
00:46:09.263 : en:7
00:50:31.023 : en:8
00:59:00.198 : en:9
01:03:11.908 : en:10
01:10:50.408 : en:11
01:14:34.923 : en:12
01:25:30.202 : en:13
01:28:48.566 : en:14
01:34:28.238 : en:15
01:43:30.821 : en:16


Релиз от:

Автор релиза: pb.wtf



Скачать Люди в черном: Интернэшнл через торрент https://d.radikal.ru/d23/1907/74/181562c23859.jpg Скачать фильм Люди в черном: Интернэшнл через торрент бесплантно в хорошем качестве Описание: Люди в черном, тайная организация на страже покоя и безопасности Земли, уже не раз защищали нас от нападения отбросов Вселенной. ... 10 10 15
Info! Золотая раздача, скачанное не засчитывается.
Торрент: Зарегистрирован [2019-08-21 02:43] · скачан: 470 раз
Статус: T временная
Размер: 4.48 GB
Как cкачать? Как скачать Люди в черном: Интернэшнл через торрент | qTorrent

% Раздел Тема Автор DL S | L
Фильмы [HD 720p, 1080p] (Хороший звук DUB, MVO) [ 4.98 GB ] Люди в черном: Интернэшнл / Men in Black International [2019 BDRip 720p] DUB [] MVO - ExKinoRay Enigma2010 Скачать
33 | 0
Фильмы [HD 720p, 1080p] (Хороший звук DUB, MVO) [ 4.21 GB ] Люди в черном: Интернэшнл / Men in Black International [2019 BDRip 720p] - ExKinoRay Enigma2010 Скачать
61 | 2
T Фильмы 2019-2020 [DVDrip, WEB-DLRip, HDrip] (DUB, MVO) [ 1.45 GB ] Люди в черном: Интернэшнл / Men in Black International [2019 WEB-DLRip] MVO [HDRezka Studio] - ExKinoRay Enigma2010 Скачать
7 | 0

28-11-2019 20:33  

Отключить всю рекламу на сайте

    Дорогой пользователь! Огромная просьба, поблагодарите релизера, оцените раздачу и оставьте свои комментарий, если Вы скачали Люди в черном: Интернэшнл через торрент бесплатно! Внесите свою лепту в развитие PiratBit!
    Комментировать посты могут только пользователи прошедшие не сложную регистрацию
    Показать сообщения:    

    Люди в черном: Интернэшнл через торрент
    Скачать бесплатно Люди в черном: Интернэшнл
    Люди в черном: Интернэшнл скачать торрент
    Люди в черном: Интернэшнл смотреть онлайн
    Cкачать фильм Люди в черном: Интернэшнл бесплатно
    Люди в черном: Интернэшнл скачать торрент в хорошем качестве
    Люди в черном: Интернэшнл смотреть онлайн бесплатно в хорошем качестве


    Вы не можете начинать темы
    Вы не можете отвечать на сообщения
    Вы не можете редактировать свои сообщения
    Вы не можете удалять свои сообщения
    Вы не можете голосовать в опросах
    Вы не можете прикреплять файлы к сообщениям
    Вы можете скачивать файлы