новый адрес
Ссылка на приватное зеркало всего за 1$. Внимание количество ограничено!!!

iTunes

1+1

iTunes

мы

WEB-DL

1

iTunes

Чернобыль

iTunes

Ральф против интернета

Лицензия

ПШазам

Лицензия

Оно 2

Лицензия

30
pack

Вам бонус

ВАЖНО

!!Акция!!

Alien_RageХит недели

RePack

Resident Evil 21

ИГРА 18+

pack

RePack

jed

!!Акция!!

Alien_Rage

RePack

fifa19

RePack

Assassins Creed: Odyssey

RePack

NEED FOR SPEED™ PAYBACK

3 сезон

9 сезон

Бесстыжие 9 сезон

Все сериалы

все сериалы на PB.wtf

RePack

FAR CRY 5
Ребята, катастрофически не хватает 1900р. для оплаты серверов за Октябрь (всвязи с блокировками трафик упал в 3 раза), 1-2р., выручайте.
  

Добро пожаловать в Акапулько / Welcome to Acapulco (Гильермо Иван) [2019, боевик, триллер, комедия, BDRip-AVC] DUB [Лицензия R5] pb.wtf

Добро пожаловать в Акапулько через торрент pb.wtf

Раздают: 1 [ 0 KB/s ]
Размер: 1.75 GB | Добавлен: 3 мес. 17 д. назад | Торрент скачан:78 раз
Скачать  

21-08-2019 05:24 Добро пожаловать в Акапулько Скачать торрент  

Добро пожаловать в Акапулько / Welcome to Acapulco«Солнце вышло – готовь оружие!»
Год выпуска: 2019
Страна: Мексика , США
Жанр: боевик, триллер, комедия
Продолжительность: 01:28:36
Перевод: Дублированный | Лицензия R5
Субтитры: Английские (полные)

Режиссер: Гильермо Иван

rating

В ролях: Уильям Болдуин, Майкл Мэдсен, Брэдли Грегг, Ана Серрадилья, Майкл Кингсбэйкер, Анна Лаевская, Гильермо Иван, Зэк Роуз, Гильермо Гарсия, Мария Елена Эредия

Описание: У разработчика компьютерных игр Мэтта Бута есть один шанс спасти свою карьеру, представив свой самый крупный проект на церемонии вручения наград в американском Нью-Мексико. Но весело отметив встречу с приятелем в аэропорту, он оказывается в мексиканском городе Акапулько. После приземления Мэтт оказывается объектом охоты преступников, киллеров и федералов, ищущих таинственный пакет, который он якобы провез через таможню, но о котором ничего не знает. Объединившись с роковой красоткой и выпустив на волю своего «внутреннего экшен героя», он раскрывает заговор, который может потрясти все Соединенные Штаты, а возможно, и целый мир...

Качество: BDRip-AVC
Формат: MKV

Видео: 1024x432 (1.85:1), 23,976 fps, x264 ~1 924 kbps avg, 0.181 bit/pixel
Аудио#1: 48 kHz, AC3 Dolby Digital, 3/2 (L,C,R,l,r) + LFE ch, ~448.00 kbps avg | RUS (R5)
Аудио#2: 48 kHz, AC3 Dolby Digital, 3/2 (L,C,R,l,r) + LFE ch, ~448.00 kbps avg | ENG
скриншот  скриншот  скриншот  скриншот  скриншот  

Общее
Уникальный идентификатор : 36224257705584621235475205552620798817 (0x1B4089CB97E83846664409D2D22D8361)
Полное имя : F:OlLanDGroupWelcome.To.Acapulco.2019.BDRip(AVC).OllanDGroup.mkv
Формат : Matroska
Версия формата : Version 4 / Version 2
Размер файла : 1,75 Гбайт
Продолжительность : 1 ч. 28 м.
Общий поток : 2820 Кбит/сек
Название фильма : Welcome.To.Acapulco.2019 #TorpedoUK#
Дата кодирования : UTC 2019-08-21 03:07:21
Программа кодирования : mkvmerge v29.0.0 ('Like It Or Not') 64-bit
Библиотека кодирования : libebml v1.3.6 + libmatroska v1.4.9

Видео
Идентификатор : 1
Формат : AVC
Формат/Информация : Advanced Video Codec
Профиль формата : High@L4.1
Параметр CABAC формата : Да
Параметр ReFrames формата : 10 кадров
Идентификатор кодека : V_MPEG4/ISO/AVC
Продолжительность : 1 ч. 28 м.
Битрейт : 1924 Кбит/сек
Ширина : 1024 пикселя
Высота : 432 пикселя
Соотношение сторон : 2,40:1
Режим частоты кадров : Постоянный
Частота кадров : 23,976 (24000/1001) кадра/сек
Цветовое пространство : YUV
Субдискретизация насыщенности : 4:2:0
Битовая глубина : 8 бит
Тип развёртки : Прогрессивная
Бит/(Пиксели*Кадры) : 0.181
Размер потока : 1,19 Гбайт (68%)
Библиотека кодирования : x264 core 146 r2538 121396c
Настройки программы : cabac=1 / ref=10 / deblock=1:-3:-3 / analyse=0x3:0x113 / me=umh / subme=11 / psy=1 / psy_rd=0.98:0.04 / mixed_ref=1 / me_range=48 / chroma_me=1 / trellis=2 / 8x8dct=1 / cqm=0 / deadzone=21,11 / fast_pskip=1 / chroma_qp_offset=-3 / threads=6 / lookahead_threads=1 / sliced_threads=0 / nr=0 / decimate=1 / interlaced=0 / bluray_compat=0 / constrained_intra=0 / bframes=11 / b_pyramid=2 / b_adapt=2 / b_bias=0 / direct=3 / weightb=1 / open_gop=0 / weightp=2 / keyint=240 / keyint_min=23 / scenecut=40 / intra_refresh=0 / rc_lookahead=40 / rc=2pass / mbtree=0 / bitrate=1924 / ratetol=1.0 / qcomp=0.60 / qpmin=0 / qpmax=69 / qpstep=4 / cplxblur=20.0 / qblur=0.5 / vbv_maxrate=50000 / vbv_bufsize=62500 / nal_hrd=none / filler=0 / ip_ratio=1.40 / pb_ratio=1.30 / aq=1:1.00
Язык : English
Default : Да
Forced : Нет

Аудио #1
Идентификатор : 2
Формат : AC-3
Формат/Информация : Audio Coding 3
Расширение режима : CM (complete main)
Параметр Endianness формата : Big
Идентификатор кодека : A_AC3
Продолжительность : 1 ч. 28 м.
Вид битрейта : Постоянный
Битрейт : 448 Кбит/сек
Каналы : 6 каналов
Расположение каналов : Front: L C R, Side: L R, LFE
Частота : 48,0 КГц
Частота кадров : 31,250 кадров/сек (1536 spf)
Битовая глубина : 16 бит
Метод сжатия : С потерями
Размер потока : 284 Мбайт (16%)
Заголовок : DUB [R5]
Язык : Russian
Default : Да
Forced : Нет

Аудио #2
Идентификатор : 3
Формат : AC-3
Формат/Информация : Audio Coding 3
Расширение режима : CM (complete main)
Параметр Endianness формата : Big
Идентификатор кодека : A_AC3
Продолжительность : 1 ч. 28 м.
Вид битрейта : Постоянный
Битрейт : 448 Кбит/сек
Каналы : 6 каналов
Расположение каналов : Front: L C R, Side: L R, LFE
Частота : 48,0 КГц
Частота кадров : 31,250 кадров/сек (1536 spf)
Битовая глубина : 16 бит
Метод сжатия : С потерями
Размер потока : 284 Мбайт (16%)
Заголовок : [Original]
Язык : English
Default : Нет
Forced : Нет

Текст
Идентификатор : 4
Формат : UTF-8
Идентификатор кодека : S_TEXT/UTF8
Идентификатор кодека/Информация : UTF-8 Plain Text
Продолжительность : 1 ч. 23 м.
Битрейт : 68 бит/сек
Count of elements : 1259
Размер потока : 41,9 Кбайт (0%)
Заголовок : Full
Язык : English
Default : Нет
Forced : Нет

Меню
00:00:00.000 : :Глава 01
00:10:31.005 : :Глава 02
00:24:09.114 : :Глава 03
00:37:39.048 : :Глава 04
00:48:53.805 : :Глава 05
00:59:43.037 : :Глава 06
01:11:37.167 : :Глава 07

pb.wtf



Скачать Добро пожаловать в Акапулько через торрент https://i87.fastpic.ru/big/2019/0821/54/1a6d7373a1c3d2e0543116b2e9541b54.jpg Скачать фильм Добро пожаловать в Акапулько через торрент бесплантно в хорошем качестве Описание: У разработчика компьютерных игр Мэтта Бута есть один шанс спасти свою карьеру, представив свой самый крупный проект на церемонии ... 10 10 3
Торрент: Зарегистрирован [2019-08-21 05:24] · скачан: 78 раз
Статус: √ проверено
Размер: 1.75 GB
Как cкачать? Как скачать Добро пожаловать в Акапулько через торрент | qTorrent

% Раздел Тема Автор DL S | L
Фильмы [HD 720p, 1080p] (Хороший звук DUB, MVO) [ 3.12 GB ] Добро пожаловать в Акапулько / Welcome to Acapulco [2019 BDRip 720p] Dub MVO [HDRezka Studio] - ExKinoRay Enigma2010 Скачать
8 | 0
Фильмы 2019 [DVDrip, WEB-DLRip, HDrip] (DUB, MVO) [ 1.46 GB ] Добро пожаловать в Акапулько / Welcome to Acapulco [2019 BDRip] - [] Twi7ter Скачать
32 | 5
Фильмы (Blu-ray, BD-Remux, HDDVD) [ 16.38 GB ] Добро пожаловать в Акапулько / Welcome to Acapulco [2019 BD Remux 1080p] DUB [] bober100 Скачать
1 | 0
Фильмы 2019 [DVDrip, WEB-DLRip, HDrip] (DUB, MVO) [ 743 MB ] Добро пожаловать в Акапулько / Welcome to Acapulco [2019 BDRip] DUB [] bober100 Скачать
2 | 0
Фильмы 2019 [DVDrip, WEB-DLRip, HDrip] (DUB, MVO) [ 1.46 GB ] Добро пожаловать в Акапулько / Welcome to Acapulco [2019 BDRip] DUB [] bober100 Скачать
2 | 0
T Фильмы (WEB-DL 720p, 1080p) [ 3.19 GB ] Добро пожаловать в Акапулько / Welcome to Acapulco [2019 WEB-DL 1080p] MVO [HDRezka Studio] - ExKinoRay Enigma2010 Скачать
3 | 0
T Фильмы 2019 [DVDrip, WEB-DLRip, HDrip] (DUB, MVO) [ 1.37 GB ] Добро пожаловать в Акапулько / Welcome to Acapulco [2019 WEB-DLRip] MVO [HDRezka Studio] - ExKinoRay Enigma2010 Скачать
2 | 0

28-11-2019 20:33  

Отключить всю рекламу на сайте

22-08-2019 20:17 Добро пожаловать в Акапулько Скачать торрент  

Интересный динамичный боевик. Спасибо за рип.pb.wtf



    Дорогой пользователь! Огромная просьба, поблагодарите релизера, оцените раздачу и оставьте свои комментарий, если Вы скачали Добро пожаловать в Акапулько через торрент бесплатно! Внесите свою лепту в развитие PiratBit!
    Комментировать посты могут только пользователи прошедшие не сложную регистрацию
    Показать сообщения:    

    Добро пожаловать в Акапулько через торрент
    Скачать бесплатно Добро пожаловать в Акапулько
    Добро пожаловать в Акапулько скачать торрент
    Добро пожаловать в Акапулько смотреть онлайн
    Cкачать фильм Добро пожаловать в Акапулько бесплатно
    Добро пожаловать в Акапулько скачать торрент в хорошем качестве
    Добро пожаловать в Акапулько смотреть онлайн бесплатно в хорошем качестве


    Вы не можете начинать темы
    Вы не можете отвечать на сообщения
    Вы не можете редактировать свои сообщения
    Вы не можете удалять свои сообщения
    Вы не можете голосовать в опросах
    Вы не можете прикреплять файлы к сообщениям
    Вы можете скачивать файлы