новый адрес
Ссылка на приватное зеркало всего за 1$. Внимание количество ограничено!!!

iTunes

1+1

iTunes

мы

WEB-DL

1

iTunes

Чернобыль

iTunes

Ральф против интернета

Лицензия

ПШазам

Лицензия

Оно 2

Лицензия

30
pack

Вам бонус

ВАЖНО

!!Акция!!

Alien_RageХит недели

RePack

Resident Evil 21

ИГРА 18+

pack

RePack

jed

!!Акция!!

Alien_Rage

RePack

fifa19

RePack

Assassins Creed: Odyssey

RePack

NEED FOR SPEED™ PAYBACK

3 сезон

9 сезон

Бесстыжие 9 сезон

Все сериалы

все сериалы на PB.wtf

RePack

FAR CRY 5
Ребята, катастрофически не хватает 1900р. для оплаты серверов за Октябрь (всвязи с блокировками трафик упал в 3 раза), 1-2р., выручайте.
  

Добро пожаловать в Акапулько / Welcome to Acapulco (Гильермо Иван) [2019, боевик, триллер, комедия, BDRip] DUB [Лицензия] pb.wtf

Добро пожаловать в Акапулько через торрент pb.wtf

Раздают: 1 [ 0 KB/s ]
Размер: 743 MB | Добавлен: 3 мес. 18 д. назад | Торрент скачан:31 раз
Скачать  

21-08-2019 16:12 Добро пожаловать в Акапулько Скачать торрент  

Добро пожаловать в Акапулько / Welcome to Acapulco
Год выпуска: 2019
Страна: Мексика , США
Жанр: боевик, триллер, комедия
Продолжительность: 01:28:36
Перевод: Дублированный | Лицензия
Субтитры: отсутствуют

Режиссер: Гильермо Иван

rating

В ролях: Уильям Болдуин, Майкл Мэдсен, Брэдли Грегг, Ана Серрадилья, Майкл Кингсбэйкер, Анна Лаевская, Гильермо Иван, Зэк Роуз, Гильермо Гарсия, Мария Елена Эредия

Описание: У разработчика компьютерных игр Мэтта Бута есть один шанс спасти свою карьеру, представив свой самый крупный проект на церемонии вручения наград в американском Нью-Мексико. Но весело отметив встречу с приятелем в аэропорту, он оказывается в мексиканском городе Акапулько. После приземления Мэтт оказывается объектом охоты преступников, киллеров и федералов, ищущих таинственный пакет, который он якобы провез через таможню, но о котором ничего не знает. Объединившись с роковой красоткой и выпустив на волю своего «внутреннего экшен героя», он раскрывает заговор, который может потрясти все Соединенные Штаты, а возможно, и целый мир...

Качество: BDRip
Формат: AVI

Видео: 688x288 (2.39:1), 23.976 fps, XviD build 50 ~1034 kbps avg, 0.22 bit/pixel
Аудио: 48 kHz, MPEG Layer 3, 2 ch, ~128.00 kbps avg
скриншот  скриншот  скриншот  скриншот  скриншот  

Общее
Полное имя: C:Добро пожаловать в Акапулько_2019_BDRip.740.mb.avi
Формат: AVI
Формат/Информация: Audio Video Interleave
Размер файла: 743 Мбайт
Продолжительность: 1 ч. 28 м.
Общий поток: 1172 Кбит/сек
Программа кодирования: VirtualDubMod 1.5.10.3 | www.virtualdub-fr.org || (build 2550/release)
Библиотека кодирования: VirtualDubMod build 2550/release

Видео
Идентификатор: 0
Формат: MPEG-4 Visual
Профиль формата: Advanced Simple@L5
Параметр BVOP формата: 1
Параметр QPel формата: Нет
Параметр GMC формата: Без точки перехода
Параметр матрицы формата: Default (H.263)
Идентификатор кодека: XVID
Идентификатор кодека/Подсказка: XviD
Продолжительность: 1 ч. 28 м.
Битрейт: 1035 Кбит/сек
Ширина: 688 пикселей
Высота: 288 пикселей
Соотношение сторон: 2,40:1
Частота кадров: 23,976 кадра/сек
Цветовое пространство: YUV
Субдискретизация насыщенности: 4:2:0
Битовая глубина: 8 бит
Тип развёртки: Прогрессивная
Метод сжатия: С потерями
Бит/(Пиксели*Кадры): 0.218
Размер потока: 656 Мбайт (88%)
Библиотека кодирования: XviD 1.2.1 (UTC 2008-12-04)

Аудио
Идентификатор: 1
Формат: MPEG Audio
Версия формата: Version 1
Профиль формата: Layer 3
Идентификатор кодека: 55
Идентификатор кодека/Подсказка: MP3
Продолжительность: 1 ч. 28 м.
Вид битрейта: Постоянный
Битрейт: 128 Кбит/сек
Каналы: 2 канала
Частота: 48,0 КГц
Метод сжатия: С потерями
Размер потока: 81,1 Мбайт (11%)
Выравнивание: Соединение по промежуткам
Продолжительность промежутка: 42 мс. (1,00 видеокадр)
Время предзагрузки промежутка: 504 мс.
Библиотека кодирования: LAME3.99r
Настройки программы: -m s -V 4 -q 2 -lowpass 17 -b 128

pb.wtf



Скачать Добро пожаловать в Акапулько через торрент https://b.radikal.ru/b29/1903/42/865fc0f052a2.jpg Скачать фильм Добро пожаловать в Акапулько через торрент бесплантно в хорошем качестве Описание: У разработчика компьютерных игр Мэтта Бута есть один шанс спасти свою карьеру, представив свой самый крупный проект на церемонии ... 10 10 3
Торрент: Зарегистрирован [2019-08-21 16:12] · скачан: 31 раз
Статус: √ проверено
Размер: 743 MB
Как cкачать? Как скачать Добро пожаловать в Акапулько через торрент | qTorrent

% Раздел Тема Автор DL S | L
Фильмы [HD 720p, 1080p] (Хороший звук DUB, MVO) [ 3.12 GB ] Добро пожаловать в Акапулько / Welcome to Acapulco [2019 BDRip 720p] Dub MVO [HDRezka Studio] - ExKinoRay Enigma2010 Скачать
14 | 0
Фильмы 2019 [DVDrip, WEB-DLRip, HDrip] (DUB, MVO) [ 1.46 GB ] Добро пожаловать в Акапулько / Welcome to Acapulco [2019 BDRip] - [] Twi7ter Скачать
61 | 6
Фильмы 2019 [DVDrip, WEB-DLRip, HDrip] (DUB, MVO) [ 1.75 GB ] Добро пожаловать в Акапулько / Welcome to Acapulco [2019 BDRip-AVC] DUB [ R5] bober100 Скачать
3 | 0
Фильмы (Blu-ray, BD-Remux, HDDVD) [ 16.38 GB ] Добро пожаловать в Акапулько / Welcome to Acapulco [2019 BD Remux 1080p] DUB [] bober100 Скачать
1 | 0
Фильмы 2019 [DVDrip, WEB-DLRip, HDrip] (DUB, MVO) [ 1.46 GB ] Добро пожаловать в Акапулько / Welcome to Acapulco [2019 BDRip] DUB [] bober100 Скачать
1 | 0
T Фильмы (WEB-DL 720p, 1080p) [ 3.19 GB ] Добро пожаловать в Акапулько / Welcome to Acapulco [2019 WEB-DL 1080p] MVO [HDRezka Studio] - ExKinoRay Enigma2010 Скачать
3 | 0
T Фильмы 2019 [DVDrip, WEB-DLRip, HDrip] (DUB, MVO) [ 1.37 GB ] Добро пожаловать в Акапулько / Welcome to Acapulco [2019 WEB-DLRip] MVO [HDRezka Studio] - ExKinoRay Enigma2010 Скачать
8 | 0

28-11-2019 20:33  

Отключить всю рекламу на сайте

    Дорогой пользователь! Огромная просьба, поблагодарите релизера, оцените раздачу и оставьте свои комментарий, если Вы скачали Добро пожаловать в Акапулько через торрент бесплатно! Внесите свою лепту в развитие PiratBit!
    Комментировать посты могут только пользователи прошедшие не сложную регистрацию
    Показать сообщения:    

    Добро пожаловать в Акапулько через торрент
    Скачать бесплатно Добро пожаловать в Акапулько
    Добро пожаловать в Акапулько скачать торрент
    Добро пожаловать в Акапулько смотреть онлайн
    Cкачать фильм Добро пожаловать в Акапулько бесплатно
    Добро пожаловать в Акапулько скачать торрент в хорошем качестве
    Добро пожаловать в Акапулько смотреть онлайн бесплатно в хорошем качестве


    Вы не можете начинать темы
    Вы не можете отвечать на сообщения
    Вы не можете редактировать свои сообщения
    Вы не можете удалять свои сообщения
    Вы не можете голосовать в опросах
    Вы не можете прикреплять файлы к сообщениям
    Вы можете скачивать файлы