новый адрес
Ссылка на приватное зеркало всего за 1$. Внимание количество ограничено!!!

iTunes

1+1

iTunes

мы

iTunes

1

iTunes

Чернобыль

iTunes

Ральф против интернета

Лицензия

ПШазам

Лицензия

Оно 2

Лицензия

30
pack

Вам бонус

ВАЖНО

!!Акция!!

Alien_RageХит недели

RePack

Resident Evil 21

ИГРА 18+

pack

RePack

jed

!!Акция!!

Alien_Rage

RePack

fifa19

RePack

Assassins Creed: Odyssey

RePack

NEED FOR SPEED™ PAYBACK

3 сезон

9 сезон

Бесстыжие 9 сезон

Все сериалы

все сериалы на PB.wtf

RePack

FAR CRY 5
Ребята, катастрофически не хватает 1900р. для оплаты серверов за Октябрь (всвязи с блокировками трафик упал в 3 раза), 1-2р., выручайте.
  

Проект «Итака» / Project Ithaca (Николас Хемфрис) [2019 г., фантастика, триллер, HDRip, Дубляж "iTunes"] pb.wtf

Проект «Итака» через торрент pb.wtf

Размер: 698 MB | Добавлен: 3 мес. 15 д. назад | Торрент скачан:84 раза
Скачать  

21-08-2019 18:26 Проект «Итака» Скачать торрент  

Проект «Итака» / Project Ithaca
Год выпуска: 2019
Страна: Канада / Wild Media Entertainment, Hawkeye Pictures
Жанр: фантастика, триллер
Продолжительность: 01:25:20
Перевод: Дубляж (iTunes)

Режиссер: Николас Хемфрис

rating

В ролях: Джеймс Гэллэндерс, Дераг Кэмпбелл, Дэниэл Фазерс, Каролина Рейно, Алекс Вудс, Конима Паркинсон-Джонс, Taylor Thorne, Джон Новак, Джастин Джеймс Ремейкис, Hannah Galway

Описание: Шестеро не знакомых друг с другом людей оказываются в странном месте. Они не помнят, как сюда попали. Их тела связаны и они не могут пошевелиться. При попытке освободиться натяжение нитей только усиливается. Становится понятно, что они находятся на объекте внеземного происхождения.

Однако зачем они здесь и чего от них хотят? Поодиночке они умрут, но если объединятся, то у них есть шанс найти дорогу домой.

Качество: HDRip
Формат: AVI
Видео кодек: XviD
Аудио кодек: MP3
Видео: 640x272 (2.35:1), 23.976 fps, XviD build 50 ~1005 kbps avg, 0.24 bit/pixel
Аудио: 48 kHz, MPEG Layer 3, 2 ch, ~128.00 kbps avg
скриншот   скриншот   скриншот   скриншот   скриншот   скриншот   скриншот   скриншот  

Общее
Полное имя : F:\ФИЛЬМЫ\Проект «Итака».2019.D.HDRip.avi
Формат : AVI
Формат/Информация : Audio Video Interleave
Размер файла : 698 Мбайт
Продолжительность : 1 ч. 25 м.
Общий поток : 1143 Кбит/сек
Программа кодирования : VirtualDubMod 1.5.10.3 | www.virtualdub-fr.org || (build 2550/release)
Библиотека кодирования : VirtualDubMod build 2550/release

Видео
Идентификатор : 0
Формат : MPEG-4 Visual
Профиль формата : Advanced Simple@L5
Настройки формата : BVOP3 / GMC3 / QPel
Параметр BVOP формата : 3
Параметр QPel формата : Да
Параметр GMC формата : 3 точки перехода
Параметр матрицы формата : Default (MPEG)
Идентификатор кодека : XVID
Идентификатор кодека/Подсказка : XviD
Продолжительность : 1 ч. 25 м.
Битрейт : 1006 Кбит/сек
Ширина : 640 пикселей
Высота : 272 пикселя
Соотношение сторон : 2,35:1
Частота кадров : 23,976 (24000/1001) кадра/сек
Цветовое пространство : YUV
Субдискретизация насыщенности : 4:2:0
Битовая глубина : 8 бит
Тип развёртки : Прогрессивная
Метод сжатия : С потерями
Бит/(Пиксели*Кадры) : 0.241
Размер потока : 614 Мбайт (88%)
Библиотека кодирования : XviD 1.2.1 (UTC 2008-12-04)

Аудио
Идентификатор : 1
Формат : MPEG Audio
Версия формата : Version 1
Профиль формата : Layer 3
Настройки формата : Joint stereo / MS Stereo
Идентификатор кодека : 55
Идентификатор кодека/Подсказка : MP3
Продолжительность : 1 ч. 25 м.
Вид битрейта : Постоянный
Битрейт : 128 Кбит/сек
Каналы : 2 канала
Частота : 48,0 КГц
Частота кадров : 41,667 кадра/сек (1152 SPF)
Метод сжатия : С потерями
Размер потока : 78,0 Мбайт (11%)
Выравнивание : Соединение по промежуткам
Продолжительность промежутка : 42 мс. (1,00 видеокадр)
Время предзагрузки промежутка : 504 мс.
Библиотека кодирования : LAME3.99r
Настройки программы : -m j -V 4 -q 2 -lowpass 17 -b 128

pb.wtf



Скачать Проект «Итака» через торрент http://pic1.kartinco.top/images/12/non67.jpg Скачать фильм Проект «Итака» через торрент бесплантно в хорошем качестве Описание: Шестеро не знакомых друг с другом людей оказываются в странном месте. Они не помнят, как сюда попали. Их тела связаны и они не ... 6 10 4
Торрент: Зарегистрирован [2019-08-21 18:26] · скачан: 84 раз
Статус: √ проверено
Размер: 698 MB
Как cкачать? Как скачать Проект «Итака» через торрент | qTorrent

% Раздел Тема Автор DL S | L
Фильмы 2019 [DVDrip, WEB-DLRip, HDrip] (DUB, MVO) [ 1.46 GB ] Проект «Итака» / Project Ithaca [2019 BDRip] bober100 Скачать
4 | 0
Фильмы (Blu-ray, BD-Remux, HDDVD) [ 19.78 GB ] Проект «Итака» / Project Ithaca [2019 BD Remux 1080p] bober100 Скачать
1 | 0
Фильмы 2019 [DVDrip, WEB-DLRip, HDrip] (DUB, MVO) [ 1.66 GB ] Проект «Итака» / Project Ithaca [2019 BDRip-AVC] - ExKinoRay Enigma2010 Скачать
14 | 0
T Фильмы [HD 720p, 1080p] (Хороший звук DUB, MVO) [ 6.78 GB ] Проект «Итака» / Project Ithaca [2019 BDRip 1080p] bober100 Скачать
5 | 0
Фильмы [HD 720p, 1080p] (Хороший звук DUB, MVO) [ 4.11 GB ] Проект «Итака» / Project Ithaca [2019 BDRip 720p] bober100 Скачать
1 | 0
Отключить всю рекламу на сайте
    Дорогой пользователь! Огромная просьба, поблагодарите релизера, оцените раздачу и оставьте свои комментарий, если Вы скачали Проект «Итака» через торрент бесплатно! Внесите свою лепту в развитие PiratBit!
    Комментировать посты могут только пользователи прошедшие не сложную регистрацию
    Показать сообщения:    

    Проект «Итака» через торрент
    Скачать бесплатно Проект «Итака»
    Проект «Итака» скачать торрент
    Проект «Итака» смотреть онлайн
    Cкачать фильм Проект «Итака» бесплатно
    Проект «Итака» скачать торрент в хорошем качестве
    Проект «Итака» смотреть онлайн бесплатно в хорошем качестве


    Вы не можете начинать темы
    Вы не можете отвечать на сообщения
    Вы не можете редактировать свои сообщения
    Вы не можете удалять свои сообщения
    Вы не можете голосовать в опросах
    Вы не можете прикреплять файлы к сообщениям
    Вы можете скачивать файлы