новый адрес
Ссылка на приватное зеркало всего за 1$. Внимание количество ограничено!!!

iTunes

1+1

iTunes

мы

WEB-DL

1

iTunes

Чернобыль

iTunes

Ральф против интернета

Лицензия

ПШазам

Лицензия

Оно 2

Лицензия

30
pack

Вам бонус

ВАЖНО

!!Акция!!

Alien_RageХит недели

RePack

Resident Evil 21

ИГРА 18+

pack

RePack

jed

!!Акция!!

Alien_Rage

RePack

fifa19

RePack

Assassins Creed: Odyssey

RePack

NEED FOR SPEED™ PAYBACK

3 сезон

9 сезон

Бесстыжие 9 сезон

Все сериалы

все сериалы на PB.wtf

RePack

FAR CRY 5
Ребята, катастрофически не хватает 1900р. для оплаты серверов за Октябрь (всвязи с блокировками трафик упал в 3 раза), 1-2р., выручайте.
  

Собачья жизнь 2 / A Dog's Journey (Гейл Манкусо) [2019, фэнтези, драма, комедия, приключения, семейный, BDRip-AVC] [DUB] [iTunes] - ExKinoRay pb.wtf

Собачья жизнь 2 через торрент pb.wtf

Раздают: 154 [ 2 KB/s ] Качают: 5 [ 0 KB/s ]
Размер: 1.97 GB | Добавлен: 3 мес. 21 д. назад | Торрент скачан:202 раза
Скачать  

21-08-2019 18:57 Собачья жизнь 2 Скачать торрент  

Название: Собачья жизнь 2
Оригинальное название: A Dog's Journey
Год выпуска: 2019
Жанр: Фэнтези, драма, комедия, приключения, семейный
Режиссер: Гейл Манкусо
В ролях: Дэннис Куэйд, Эбби Райдер Фортсон, Бетти Гилпин, Кэтрин Прескотт, Марг Хельгенбергер, Джош Гэд, Джейк Мэнли, Даниэла Барбоза, Йен Чен, Генри Лау, Эмма Фольк, Джонни Галэки

Описание:
Старый пес Бадди прожил несколько жизней, прежде чем воссоединиться со своим первым хозяином. Но на этом цепь его перерождений не оборвалась. Он возвращается в теле щенка, получает кличку Молли и выполняет новую миссию – принести счастье проблемной девочке-подростку СиДжей.

rating

Страна: Индия, Гонконг, США, Китай
Студия: DreamWorks, Walden Media, Amblin Entertainment
Продолжительность: 01:48:39
Перевод: Дублированный | iTunes

Формат: MKV
Качество: BDRip-AVC
Видео: MPEG-4 AVC, 1024x428 (2.40:1), 23.976 fps, 1756 Kbps, 0.167 bit/pixel
Аудио #01: 48 kHz, AC3, 5.1, 384 Kbps | iTunes | RUS |
Аудио #03: 48 kHz, AC3, 5.1, 448 Kbps | Оригинал | ENG |
Субтитры: Русские (форсированные), английские
General
Unique ID : 235869429180692739709601274590130049962 (0xB172CCB6ADDA66A89736A527A8FF93AA)
Complete name : D:\A.Dogs.Journey.2019.BDRip.AVC.ExKinoRay.mkv
Format : Matroska
Format version : Version 2
File size : 1.97 GiB
Duration : 1 h 48 min
Overall bit rate : 2 590 kb/s
Movie name : A Dogs Journey 2019 from ExKinoRay
Encoded date : UTC 2019-08-21 18:35:11
Writing application : mkvmerge v5.6.0 ('Kenya Kane') built on May 27 2012 16:44:04
Writing library : libebml v1.2.3 + libmatroska v1.3.0

Video
ID : 1
Format : AVC
Format/Info : Advanced Video Codec
Format profile : High@L4.1
Format settings, CABAC : Yes
Format settings, ReFrames : 12 frames
Codec ID : V_MPEG4/ISO/AVC
Duration : 1 h 48 min
Bit rate : 1 756 kb/s
Width : 1 024 pixels
Height : 428 pixels
Display aspect ratio : 2.40:1
Frame rate mode : Constant
Frame rate : 23.976 (23976/1000) FPS
Color space : YUV
Chroma subsampling : 4:2:0
Bit depth : 8 bits
Scan type : Progressive
Bits/(Pixel*Frame) : 0.167
Stream size : 1.30 GiB (66%)
Title : Enigma
Writing library : x264 core 152 r2851 ba24899
Encoding settings : cabac=1 / ref=12 / deblock=1:-3:-3 / analyse=0x3:0x113 / me=umh / subme=10 / psy=1 / psy_rd=1.00:0.00 / mixed_ref=1 / me_range=32 / chroma_me=1 / trellis=2 / 8x8dct=1 / cqm=0 / deadzone=21,11 / fast_pskip=0 / chroma_qp_offset=-2 / threads=12 / lookahead_threads=3 / sliced_threads=0 / nr=0 / decimate=0 / interlaced=0 / bluray_compat=0 / constrained_intra=0 / bframes=10 / b_pyramid=2 / b_adapt=2 / b_bias=0 / direct=3 / weightb=1 / open_gop=0 / weightp=2 / keyint=240 / keyint_min=23 / scenecut=40 / intra_refresh=0 / rc=2pass / mbtree=0 / bitrate=1756 / ratetol=1.0 / qcomp=0.60 / qpmin=0 / qpmax=51 / qpstep=4 / cplxblur=20.0 / qblur=0.5 / ip_ratio=1.24 / pb_ratio=1.30 / aq=3:1.00
Language : English
Default : Yes
Forced : No
Color range : Limited
Color primaries : BT.709
Transfer characteristics : BT.709
Matrix coefficients : BT.709

Audio #1
ID : 2
Format : AC-3
Format/Info : Audio Coding 3
Mode extension : CM (complete main)
Format settings, Endianness : Big
Codec ID : A_AC3
Duration : 1 h 48 min
Bit rate mode : Constant
Bit rate : 384 kb/s
Channel(s) : 6 channels
Channel positions : Front: L C R, Side: L R, LFE
Sampling rate : 48.0 kHz
Frame rate : 31.250 FPS (1536 spf)
Compression mode : Lossy
Stream size : 298 MiB (15%)
Title : iTunes
Language : Russian
Default : No
Forced : No

Audio #2
ID : 3
Format : AC-3
Format/Info : Audio Coding 3
Mode extension : CM (complete main)
Format settings, Endianness : Big
Codec ID : A_AC3
Duration : 1 h 48 min
Bit rate mode : Constant
Bit rate : 448 kb/s
Channel(s) : 6 channels
Channel positions : Front: L C R, Side: L R, LFE
Sampling rate : 48.0 kHz
Frame rate : 31.250 FPS (1536 spf)
Compression mode : Lossy
Stream size : 348 MiB (17%)
Language : English
Default : No
Forced : No

Text #1
ID : 4
Format : UTF-8
Codec ID : S_TEXT/UTF8
Codec ID/Info : UTF-8 Plain Text
Title : Forced
Language : Russian
Default : Yes
Forced : No

Text #2
ID : 5
Format : UTF-8
Codec ID : S_TEXT/UTF8
Codec ID/Info : UTF-8 Plain Text
Language : English
Default : No
Forced : No

Menu
00:00:00.000 : en:Chapter 01
00:04:55.385 : en:Chapter 02
00:10:33.671 : en:Chapter 03
00:15:06.000 : en:Chapter 04
00:20:53.377 : en:Chapter 05
00:26:01.113 : en:Chapter 06
00:30:11.504 : en:Chapter 07
00:35:15.597 : en:Chapter 08
00:39:45.948 : en:Chapter 09
00:43:08.626 : en:Chapter 10
00:49:13.465 : en:Chapter 11
00:56:55.598 : en:Chapter 12
01:01:47.373 : en:Chapter 13
01:07:37.577 : en:Chapter 14
01:13:58.222 : en:Chapter 15
01:20:46.859 : en:Chapter 16
01:26:23.049 : en:Chapter 17
01:28:29.543 : en:Chapter 18
01:37:27.011 : en:Chapter 19
01:42:07.711 : en:Chapter 20


Релиз от:

Автор релиза: pb.wtf



Скачать Собачья жизнь 2 через торрент https://c.radikal.ru/c03/1908/d0/4cca19860d98.jpg Скачать фильм Собачья жизнь 2 через торрент бесплантно в хорошем качестве Описание: Старый пес Бадди прожил несколько жизней, прежде чем воссоединиться со своим первым хозяином. Но на этом цепь его перерождений не ... 10 10 1
Info! Золотая раздача, скачанное не засчитывается.
Торрент: Зарегистрирован [2019-08-21 18:57] · скачан: 202 раз
Статус: √ проверено
Размер: 1.97 GB
Как cкачать? Как скачать Собачья жизнь 2 через торрент | qTorrent

28-11-2019 20:33  

Отключить всю рекламу на сайте

    Дорогой пользователь! Огромная просьба, поблагодарите релизера, оцените раздачу и оставьте свои комментарий, если Вы скачали Собачья жизнь 2 через торрент бесплатно! Внесите свою лепту в развитие PiratBit!
    Комментировать посты могут только пользователи прошедшие не сложную регистрацию
    Показать сообщения:    

    Собачья жизнь 2 через торрент
    Скачать бесплатно Собачья жизнь 2
    Собачья жизнь 2 скачать торрент
    Собачья жизнь 2 смотреть онлайн
    Cкачать фильм Собачья жизнь 2 бесплатно
    Собачья жизнь 2 скачать торрент в хорошем качестве
    Собачья жизнь 2 смотреть онлайн бесплатно в хорошем качестве


    Вы не можете начинать темы
    Вы не можете отвечать на сообщения
    Вы не можете редактировать свои сообщения
    Вы не можете удалять свои сообщения
    Вы не можете голосовать в опросах
    Вы не можете прикреплять файлы к сообщениям
    Вы можете скачивать файлы