новый адрес
Ссылка на приватное зеркало всего за 1$. Внимание количество ограничено!!!

iTunes

1+1

iTunes

мы

iTunes

1

iTunes

Чернобыль

iTunes

Ральф против интернета

Лицензия

ПШазам

Лицензия

Оно 2

Лицензия

30
pack

Вам бонус

ВАЖНО

!!Акция!!

Alien_RageХит недели

RePack

Resident Evil 21

ИГРА 18+

pack

RePack

jed

!!Акция!!

Alien_Rage

RePack

fifa19

RePack

Assassins Creed: Odyssey

RePack

NEED FOR SPEED™ PAYBACK

3 сезон

9 сезон

Бесстыжие 9 сезон

Все сериалы

все сериалы на PB.wtf

RePack

FAR CRY 5
Ребята, катастрофически не хватает 1900р. для оплаты серверов за Октябрь (всвязи с блокировками трафик упал в 3 раза), 1-2р., выручайте.
  

Куриоса / Curiosa (Лу Жене) [2019, мелодрама, история, WEB-DLRip-AVC] DUB [iTunes] - ExKinoRay pb.wtf

Куриоса через торрент pb.wtf

Раздают: 26 [ 45 KB/s ] Качают: 1 [ 0 KB/s ]
Размер: 1.53 GB | Добавлен: 3 мес. 15 д. назад | Торрент скачан:150 раз
Скачать  

21-08-2019 23:12 Куриоса Скачать торрент  

Название: Куриоса
Оригинальное название: Curiosa
Год выпуска: 2019
Жанр: Мелодрама, история
Режиссер: Лу Жене
В ролях: Ноэми Мерлан, Нильс Шнайдер, Бенжамен Лаверн, Камелия Джордана, Амира Казар, Скали Дельпейра, Эмильен Дьяр-Детоф, Матильда Варнье, Мелоди Ришар, Дамиен Боннар

Описание: За основу сюжета этой исторической мелодрамы положены письма и дневники светских лиц, живших в Париже в конце девятнадцатого столетия. Сюжетная линия затрагивает непростые взаимоотношения между двумя мужчинами и одной женщиной. На первый взгляд может показаться, что это типичный любовный треугольник, но здесь всё намного серьёзнее. Всё дело в том, что в Париже само понятие "любви" воспринимается как-то по-особенному, так и эта история превратилась в чувственный любовный треугольник, ведь мужчины не хотят уступать, а женщине тяжело сделать выбор.

rating

Страна: Франция
Студия: Canal+ [fr], Curiosa Films, Memento Films International, Memento Films Distribution
Продолжительность: 01:44:53
Перевод: Дублированный | iTunes

Формат: MKV
Качество: WEB-DLRip-AVC
Видео: MPEG-4 AVC, 1024x554 (1.85:1), 24.000 fps, 1756 Kbps, 0.125 bit/pixel
Аудио #01: 48 kHz, AC3, 5.1, 384 Kbps | iTunes | RUS |
General
Unique ID : 197128760945523199988348054010674808486 (0x944D9E4CDF913D52A903017BBC3C06A6)
Complete name : F:\Куриоса.2019.WEB-DL.ExKinoRay.mkv
Format : Matroska
Format version : Version 2
File size : 1.53 GiB
Duration : 1 h 44 min
Overall bit rate : 2 088 kb/s
Movie name : CURIOSA 2019 from ExKinoRay
Encoded date : UTC 2019-08-21 22:22:44
Writing application : mkvmerge v5.6.0 ('Kenya Kane') built on May 27 2012 16:44:04
Writing library : libebml v1.2.3 + libmatroska v1.3.0

Video
ID : 1
Format : AVC
Format/Info : Advanced Video Codec
Format profile : High@L4.1
Format settings, CABAC : Yes
Format settings, ReFrames : 11 frames
Codec ID : V_MPEG4/ISO/AVC
Duration : 1 h 44 min
Bit rate : 1 705 kb/s
Width : 1 024 pixels
Height : 554 pixels
Display aspect ratio : 1.85:1
Frame rate mode : Constant
Frame rate : 24.000 FPS
Color space : YUV
Chroma subsampling : 4:2:0
Bit depth : 8 bits
Scan type : Progressive
Bits/(Pixel*Frame) : 0.125
Stream size : 1.22 GiB (80%)
Title : Enigma
Writing library : x264 core 152 r2851 ba24899
Encoding settings : cabac=1 / ref=11 / deblock=1:-2:-2 / analyse=0x3:0x113 / me=umh / subme=10 / psy=1 / psy_rd=1.00:0.00 / mixed_ref=1 / me_range=32 / chroma_me=1 / trellis=2 / 8x8dct=1 / cqm=0 / deadzone=21,11 / fast_pskip=0 / chroma_qp_offset=-2 / threads=12 / lookahead_threads=3 / sliced_threads=0 / nr=0 / decimate=0 / interlaced=0 / bluray_compat=0 / constrained_intra=0 / bframes=10 / b_pyramid=2 / b_adapt=2 / b_bias=0 / direct=3 / weightb=1 / open_gop=0 / weightp=2 / keyint=240 / keyint_min=24 / scenecut=40 / intra_refresh=0 / rc=2pass / mbtree=0 / bitrate=1705 / ratetol=1.0 / qcomp=0.60 / qpmin=0 / qpmax=51 / qpstep=4 / cplxblur=20.0 / qblur=0.5 / ip_ratio=1.40 / pb_ratio=1.30 / aq=3:1.00
Language : English
Default : Yes
Forced : No
Color range : Limited
Color primaries : BT.709
Transfer characteristics : BT.709
Matrix coefficients : BT.709

Audio
ID : 2
Format : AC-3
Format/Info : Audio Coding 3
Mode extension : CM (complete main)
Format settings, Endianness : Big
Codec ID : A_AC3
Duration : 1 h 44 min
Bit rate mode : Constant
Bit rate : 384 kb/s
Channel(s) : 6 channels
Channel positions : Front: L C R, Side: L R, LFE
Sampling rate : 48.0 kHz
Frame rate : 31.250 FPS (1536 spf)
Compression mode : Lossy
Stream size : 288 MiB (18%)
Title : iTunes
Language : Russian
Default : Yes
Forced : No

Menu
00:00:00.000 : en:Глава 1
00:05:50.791 : en:Глава 2
00:12:59.124 : en:Глава 3
00:20:08.749 : en:Глава 4
00:28:19.540 : en:Глава 5
00:35:42.706 : en:Глава 6
00:42:08.581 : en:Глава 7
00:48:10.872 : en:Глава 8
00:54:51.747 : en:Глава 9
01:01:26.288 : en:Глава 10
01:07:15.204 : en:Глава 11
01:13:46.162 : en:Глава 12
01:20:06.287 : en:Глава 13
01:25:36.620 : en:Глава 14
01:32:10.411 : en:Глава 15


Релиз от:

Автор релиза: pb.wtf



Скачать Куриоса через торрент https://i6.imageban.ru/out/2019/08/21/9e4ee8a18fe40ba2f97477e261c7563c.png Скачать фильм Куриоса через торрент бесплантно в хорошем качестве Описание: За основу сюжета этой исторической мелодрамы положены письма и дневники светских лиц, живших в Париже в конце девятнадцатого ... 10 10 3
Info! Золотая раздача, скачанное не засчитывается.
Торрент: Зарегистрирован [2019-08-21 23:12] · скачан: 150 раз
Статус: √ проверено
Размер: 1.53 GB
Как cкачать? Как скачать Куриоса через торрент | qTorrent

Отключить всю рекламу на сайте
    Дорогой пользователь! Огромная просьба, поблагодарите релизера, оцените раздачу и оставьте свои комментарий, если Вы скачали Куриоса через торрент бесплатно! Внесите свою лепту в развитие PiratBit!
    Комментировать посты могут только пользователи прошедшие не сложную регистрацию
    Показать сообщения:    

    Куриоса через торрент
    Скачать бесплатно Куриоса
    Куриоса скачать торрент
    Куриоса смотреть онлайн
    Cкачать фильм Куриоса бесплатно
    Куриоса скачать торрент в хорошем качестве
    Куриоса смотреть онлайн бесплатно в хорошем качестве


    Вы не можете начинать темы
    Вы не можете отвечать на сообщения
    Вы не можете редактировать свои сообщения
    Вы не можете удалять свои сообщения
    Вы не можете голосовать в опросах
    Вы не можете прикреплять файлы к сообщениям
    Вы можете скачивать файлы