Ссылка на приватное зеркало нашего сайта всего за 1$. Внимание количество ограничено!!!

2 сезон

iTunes

1 сезон

1

2 сезон

2 сезон

iTunes

1 сезон

RePack

30

Ultimate

ВАЖНО

ИГРА 18+

pack

RePack

MK11
pack

Забери бонус

RePack

jed

!!Акция!!

Alien_Rage

RePack

fifa19

RePack

Assassins Creed: Odyssey

RePack

NEED FOR SPEED™ PAYBACK

4 сезон

9 сезон

Бесстыжие 9 сезон

Все сериалы

все сериалы на PB.wtf

RePack

FAR CRY 5
  

Куриоса / Curiosa (Лу Жене) [2019, мелодрама, история, WEB-DL 720p] DUB [iTunes] pb.wtf

Куриоса через торрент pb.wtf

Размер: 3.57 GB | Добавлен: 1 год 3 мес. назад | Торрент скачан:146 раз
Скачать  

22-08-2019 09:30 Куриоса Скачать торрент  

Куриоса / Curiosa
Год выпуска: 2019
Страна: Франция
Жанр: мелодрама, история
Продолжительность: 01:44:53
Перевод: Дублированный | iTunes
Субтитры: отсутствуют

Режиссер: Лу Жене

rating

В ролях: Ноэми Мерлан, Нильс Шнайдер, Бенжамен Лаверн, Камелия Джордана, Амира Касар, Скали Дельпейра, Эмильен Дьяр-Детоф, Матильда Варнье, Мелоди Ришар, Дамиен Боннар

Описание: За основу сюжета этой исторической мелодрамы положены письма и дневники светских лиц, живших в Париже в конце девятнадцатого столетия. Сюжетная линия затрагивает непростые взаимоотношения между двумя мужчинами и одной женщиной. На первый взгляд может показаться, что это типичный любовный треугольник, но здесь всё намного серьёзнее. Всё дело в том, что в Париже само понятие "любви" воспринимается как-то по-особенному, так и эта история превратилась в чувственный любовный треугольник, ведь мужчины не хотят уступать, а женщине тяжело сделать выбор.

Качество: WEB-DL 720p
Формат: MKV

Видео: MPEG-4 AVC, 4109 Kбит/с, 1280x694, 24.000 кадр/с
Аудио: Russian: AC3, 48.0 KHz, 6 ch, 384 kbps - iTunes
Аудио: Французский (АС3, 6 ch, 384 Кбит/с, 48.0 KHz)
скриншот  скриншот  скриншот  скриншот  скриншот  

Общее
Уникальный идентификатор : 173987733683290405126007231401032909541 (0x82E4D19173B9340B86AF8427F22382E5)
Полное имя : C:\Curiosa.2019.FRENCH.WEB-DLRip.720p.mkv
Формат : Matroska
Версия формата : Version 4
Размер файла : 3,57 Гбайт
Продолжительность : 1 ч. 44 м.
Общий поток : 4878 Кбит/сек
Дата кодирования : UTC 2019-08-21 22:51:31
Программа кодирования : mkvmerge v7.1.0 ('Good Love') 64bit built on Jul 27 2014 13:06:55
Библиотека кодирования : libebml v1.3.0 + libmatroska v1.4.1

Видео
Идентификатор : 1
Формат : AVC
Формат/Информация : Advanced Video Codec
Профиль формата : High@L3.1
Настройки формата : 2 Ref Frames
Параметр CABAC формата : Нет
Параметр RefFrames формата : 2 кадра
Идентификатор кодека : V_MPEG4/ISO/AVC
Продолжительность : 1 ч. 44 м.
Битрейт : 4109 Кбит/сек
Ширина : 1280 пикселей
Высота : 694 пикселя
Соотношение сторон : 1,85:1
Режим частоты кадров : Постоянный
Частота кадров : 24,000 кадра/сек
Цветовое пространство : YUV
Субдискретизация насыщенности : 4:2:0
Битовая глубина : 8 бит
Тип развёртки : Прогрессивная
Бит/(Пиксели*Кадры) : 0.188
Размер потока : 2,94 Гбайт (82%)
Язык : English
Default : Да
Forced : Нет
Цветовой диапазон : Limited
Основные цвета : BT.709
Характеристики трансфера : BT.709
Коэффициенты матрицы : BT.709

Аудио #1
Идентификатор : 2
Формат : AC-3
Формат/Информация : Audio Coding 3
Коммерческое название : Dolby Digital
Идентификатор кодека : A_AC3
Продолжительность : 1 ч. 44 м.
Вид битрейта : Постоянный
Битрейт : 384 Кбит/сек
Каналы : 6 каналов
ChannelLayout : L R C LFE Ls Rs
Частота : 48,0 КГц
Частота кадров : 31,250 кадров/сек (1536 SPF)
Битовая глубина : 16 бит
Метод сжатия : С потерями
Размер потока : 288 Мбайт (8%)
Заголовок : DUB | iTunes
Язык : Russian
ServiceKind/String : Complete Main
Default : Да
Forced : Нет

Аудио #2
Идентификатор : 3
Формат : AC-3
Формат/Информация : Audio Coding 3
Коммерческое название : Dolby Digital
Идентификатор кодека : A_AC3
Продолжительность : 1 ч. 44 м.
Вид битрейта : Постоянный
Битрейт : 384 Кбит/сек
Каналы : 6 каналов
ChannelLayout : L R C LFE Ls Rs
Частота : 48,0 КГц
Частота кадров : 31,250 кадров/сек (1536 SPF)
Битовая глубина : 16 бит
Метод сжатия : С потерями
Размер потока : 288 Мбайт (8%)
Язык : French
ServiceKind/String : Complete Main
Default : Нет
Forced : Нет

Меню
00:00:00.000 : en:Chapitre 01
00:10:01.791 : en:Chapitre 02
00:20:00.458 : en:Chapitre 03
00:29:59.708 : en:Chapitre 04
00:40:02.625 : en:Chapitre 05
00:49:59.833 : en:Chapitre 06
01:00:01.375 : en:Chapitre 07
01:10:02.583 : en:Chapitre 08
01:20:00.791 : en:Chapitre 09
01:29:59.666 : en:Chapitre 10

pb.wtf



Скачать Куриоса через торрент https://i6.imageban.ru/out/2019/08/21/9e4ee8a18fe40ba2f97477e261c7563c.png Скачать фильм Куриоса через торрент бесплантно в хорошем качестве Описание: За основу сюжета этой исторической мелодрамы положены письма и дневники светских лиц, живших в Париже в конце девятнадцатого ... 10 10 4
Торрент: Зарегистрирован [2019-08-22 09:30] · скачан: 146 раз
Статус: √ проверено
Размер: 3.57 GB
Как cкачать? Как скачать Куриоса через торрент | qTorrent

% Раздел Тема Автор DL S | L
Фильмы 2019-2020 [DVDrip, WEB-DLRip, HDrip] (DUB, MVO) [ 1.46 GB ] Куриоса / Curiosa [2019 история BDRip] bober100 Скачать
1 | 0
Фильмы 2019-2020 [DVDrip, WEB-DLRip, HDrip] (DUB, MVO) [ 706 MB ] Куриоса / Curiosa [2019 история WEB-DLRip ""] coc900 Скачать
1 | 0
Фильмы 2019-2020 [DVDrip, WEB-DLRip, HDrip] (DUB, MVO) [ 1.53 GB ] Куриоса / Curiosa [2019 история WEB-DLRip-AVC] - ExKinoRay Enigma2010 Скачать
17 | 3
Фильмы (WEB-DL 720p, 1080p) [ 3.86 GB ] Куриоса / Curiosa [2019 история WEB-DL 1080p] bober100 Скачать
3 | 0

28-11-2019 20:33  

Отключить всю рекламу на сайте

    Дорогой пользователь! Огромная просьба, поблагодарите релизера, оцените раздачу и оставьте свои комментарий, если Вы скачали Куриоса через торрент бесплатно! Внесите свою лепту в развитие PiratBit!
    Комментировать посты могут только пользователи прошедшие не сложную регистрацию
    Показать сообщения:    

    Куриоса через торрент
    Скачать бесплатно Куриоса
    Куриоса скачать торрент
    Куриоса смотреть онлайн
    Cкачать фильм Куриоса бесплатно
    Куриоса скачать торрент в хорошем качестве
    Куриоса смотреть онлайн бесплатно в хорошем качестве


    Вы не можете начинать темы
    Вы не можете отвечать на сообщения
    Вы не можете редактировать свои сообщения
    Вы не можете удалять свои сообщения
    Вы не можете голосовать в опросах
    Вы не можете прикреплять файлы к сообщениям
    Вы можете скачивать файлы