Ссылка на приватное зеркало всего за 1$. Внимание количество ограничено!!!

OK

1+1

iTunes

мы

OK

1

WEB-DLRip

Джокер

Пифагор

Ведьмак / The Witcher сериал

Лицензия

ПШазам

ОК

Оно 2

iTunes

30
pack

Вам бонус

ВАЖНО

!!Акция!!

Alien_RageХит недели

RePack

Resident Evil 21

ИГРА 18+

pack

RePack

jed

RePack

fifa19

RePack

Assassins Creed: Odyssey

RePack

NEED FOR SPEED™ PAYBACK

4 сезон

9 сезон

Бесстыжие 9 сезон

Все сериалы

все сериалы на PB.wtf

RePack

FAR CRY 5
  

Классик (Георгий Шенгелия) [1998, боевик, криминал, WEBRip-AVC] pb.wtf

Классик через торрент pb.wtf

Размер: 1.45 GB | Добавлен: 5 мес. 1 д. назад | Торрент скачан:18 раз
Скачать  

22-08-2019 16:01 Классик Скачать торрент  

Классик Год выпуска: 1998
Страна: Россия
Жанр: боевик, криминал
Продолжительность: 01:41:22
Перевод: не требуется

Режиссер: Георгий Шенгелия

В ролях: Сергей Никоненко, Юозас Будрайтис, Алексей Гуськов, Валентина Теличкина, Лидия Вележева, Александр Панкратов-Черный, Владимир Этуш, Владимир Зельдин, Евгений Серов, Михаил Шишков

Описание: Провинциальная преступная группировка убивает курьеров и забирает общак общества бильярдистов. Чтобы вернуть деньги они посылают профессионалов...
Увлекательный динамичный боевик с лихо закрученным сюжетом.

rating

Качество: WEBRip-AVC
Контейнер: MKV
Видео: MPEG-4 AVC, 1868 Кбит/с, 840x576, 25 Кадр/с
Аудио: Rus; AC3 2; 192 Kbps; 48 kHz; Original Rus
Общее
Уникальный идентификатор : 277368179770556707631704939851954466895 (0xD0AB2B15F90F6583BB74D21D1F1F304F)
Полное имя : Klassik.1998.WEBRip.AVC.mkv
Формат : Matroska
Версия формата : Version 4
Размер файла : 1,45 Гбайт
Продолжительность : 1 ч. 40 м.
Общий поток : 2062 Кбит/сек
Название фильма : Klassik.1998.WEBRip.AVC by Koenig
Дата кодирования : UTC 2019-05-15 16:30:03
Программа кодирования : mkvmerge v28.2.0 ('The Awakening') 32-bit
Библиотека кодирования : libebml v1.3.6 + libmatroska v1.4.9
Обложка : Yes
Attachments : cover.jpg

Видео
Идентификатор : 1
Формат : AVC
Формат/Информация : Advanced Video Codec
Профиль формата : High@L4.1
Настройки формата : CABAC / 11 Ref Frames
Параметр CABAC формата : Да
Параметр RefFrames формата : 11 кадров
Идентификатор кодека : V_MPEG4/ISO/AVC
Продолжительность : 1 ч. 40 м.
Битрейт : 1868 Кбит/сек
Ширина : 840 пикселей
Высота : 576 пикселей
Соотношение сторон : 3:2
Режим частоты кадров : Постоянный
Частота кадров : 25,000 кадров/сек
Цветовое пространство : YUV
Субдискретизация насыщенности : 4:2:0
Битовая глубина : 8 бит
Тип развёртки : Прогрессивная
Бит/(Пиксели*Кадры) : 0.154
Размер потока : 1,31 Гбайт (91%)
Заголовок : Klassik.1998.WEBRip.AVC
Библиотека кодирования : x264 core 157 r2935 545de2f
Настройки программы : cabac=1 / ref=11 / deblock=1:-3:-3 / analyse=0x3:0x133 / me=umh / subme=10 / psy=1 / psy_rd=1.00:0.02 / mixed_ref=1 / me_range=32 / chroma_me=1 / trellis=2 / 8x8dct=1 / cqm=0 / deadzone=21,11 / fast_pskip=0 / chroma_qp_offset=-3 / threads=3 / lookahead_threads=1 / sliced_threads=0 / nr=0 / decimate=1 / interlaced=0 / bluray_compat=0 / constrained_intra=0 / bframes=7 / b_pyramid=2 / b_adapt=2 / b_bias=0 / direct=3 / weightb=1 / open_gop=0 / weightp=2 / keyint=250 / keyint_min=25 / scenecut=40 / intra_refresh=0 / rc_lookahead=40 / rc=2pass / mbtree=1 / bitrate=1868 / ratetol=1.0 / qcomp=0.60 / qpmin=10 / qpmax=51 / qpstep=4 / cplxblur=20.0 / qblur=0.5 / vbv_maxrate=50000 / vbv_bufsize=62500 / nal_hrd=none / filler=0 / ip_ratio=1.40 / aq=1:1.00
Язык : Russian
Default : Да
Forced : Нет

Аудио
Идентификатор : 2
Формат : AC-3
Формат/Информация : Audio Coding 3
Коммерческое название : Dolby Digital
Идентификатор кодека : A_AC3
Продолжительность : 1 ч. 40 м.
Вид битрейта : Постоянный
Битрейт : 192 Кбит/сек
Каналы : 2 канала
Channel layout : L R
Частота : 48,0 КГц
Частота кадров : 31,250 кадров/сек (1536 SPF)
Битовая глубина : 16 бит
Метод сжатия : С потерями
Размер потока : 138 Мбайт (9%)
ServiceKind/String : Complete Main
Default : Да
Forced : Нет

Меню
00:00:00.000 : :Chapter 01
00:09:08.520 : :Chapter 02
00:13:09.360 : :Chapter 03
00:19:42.840 : :Chapter 04
00:29:12.240 : :Chapter 05
00:36:45.840 : :Chapter 06
00:42:34.320 : :Chapter 07
00:51:06.600 : :Chapter 08
00:58:16.800 : :Chapter 09
01:08:29.760 : :Chapter 10
01:20:00.960 : :Chapter 11
01:35:44.400 : :Chapter 12
01:40:28.680 : :Chapter 13
скриншот  скриншот  скриншот  
pb.wtf



Скачать Классик через торрент http://i2.imageban.ru/out/2012/01/17/e6d63a1ec8a17a90b409b53b18ff2650.jpg Скачать фильм Классик через торрент бесплантно в хорошем качестве Описание: Провинциальная преступная группировка убивает курьеров и забирает общак общества бильярдистов. Чтобы вернуть деньги они посылают ... 10 10 4
Торрент: Зарегистрирован [2019-08-22 16:01] · скачан: 18 раз
Статус: √ проверено
Размер: 1.45 GB
Как cкачать? Как скачать Классик через торрент | qTorrent

% Раздел Тема Автор DL S | L
Наши фильмы (HD, WEB-DL 720p, 1080p) [ 5.97 GB ] Классик [1998 HDTV 1080i] killermax2013 Скачать
1 | 0
Зарубежный Рэп, Хип-Хоп [ 647 MB ] VA - The Rapsody 2005 / MP3 / 320 kbps / Классика и рэп Magnat Скачать
1 | 0
T Релизы по Парсеру [Игры, Сериалы и Фильмы и другое...] [ 3.07 GB ] Эхо Москвы - Битловский час и 120 минут классики рока MP3 lic007 Скачать
1 | 0
Классическая музыка [ 890 MB ] VA - Новая Современная Классика Выпуск 11 2019 / MP3 / 320 kbps / Modern Classic Яйцеслав Скачать
4 | 0
Архив (Зарубежный Rock) [ 665 MB ] VA - Мировая Классика В Современной Обработке Vol.2 2013 / MP3 / 320 kbps / Classic megatoxa Скачать
1 | 0
T Релизы по Парсеру [Игры, Сериалы и Фильмы и другое...] [ 4.15 GB ] Классик [1998 DVD5] shuller Скачать
1 | 0
Рок, Панк, Альтернатива (mp3) [ 1.07 GB ] VA - Остаться Молодым: Сборник Русского Рока 2017 / MP3 / 320 kbps / Рок Альтернатива Классика Рока bober100 Скачать
1 | 0

28-11-2019 20:33  

Отключить всю рекламу на сайте

22-08-2019 18:24 Классик Скачать торрент  

Так ничё фильмpb.wtf



    Дорогой пользователь! Огромная просьба, поблагодарите релизера, оцените раздачу и оставьте свои комментарий, если Вы скачали Классик через торрент бесплатно! Внесите свою лепту в развитие PiratBit!
    Комментировать посты могут только пользователи прошедшие не сложную регистрацию
    Показать сообщения:    

    Классик через торрент
    Скачать бесплатно Классик
    Классик скачать торрент
    Классик смотреть онлайн
    Cкачать фильм Классик бесплатно
    Классик скачать торрент в хорошем качестве
    Классик смотреть онлайн бесплатно в хорошем качестве


    Вы не можете начинать темы
    Вы не можете отвечать на сообщения
    Вы не можете редактировать свои сообщения
    Вы не можете удалять свои сообщения
    Вы не можете голосовать в опросах
    Вы не можете прикреплять файлы к сообщениям
    Вы можете скачивать файлы