Anonymous, добрый вечер, присоединяйтесь к нам в Telegram!, здесь всегда актуальный адрес сайта, оперативная поддержка и многое другое!

>

5.5

iTunes

7.4

iTunes

7.9

iTunes

1

7.7

1 сезон

6.8

iTunes

7.3

1 сезон

13

6.7

1 сезон

8.3

RePack

30

ULTIMATE

pack

9.9

Лицензия

ВАЖНО

ИГРА 18+

pack

7.3

RePack

MK11

7.7

RePack

jed

7.8

RePack

fifa19

8.5

RePack

RDR2

RePack

NEED FOR SPEED™ PAYBACK

4 сезон

9 сезон

Бесстыжие 9 сезон

Все сериалы

все сериалы на PB.wtf

RePack

FAR CRY 5

Anonymous, добрый вечер, мы катастрофически не успеваем собрать деньги на оплату серверов, помогите нам пожалуйста 5,10,15р., для нас важна любая помощь . В качестве благодарности мы отключим Вам всю рекламу на сайте (укажите свой ник в строку Ваше имя)!

×
  
Magnet ссылка

Учителя / Сезон: 1 / Серии: 1-12 из 12 (Илья Куликов) [2018, Драма, WEB-DL 720p] pb.wtf

Учителя через торрент pb.wtf

Размер: 14.93 GB | Добавлен: 1 год 11 мес. назад | Торрент скачан:93 раза
Смотреть онлайн Учителя | Скачать    Ребята, помогите собрать деньги на оплату серверов!!!

22-08-2019 18:48 Учителя Скачать торрент  

Учителя
Год выпуска: 2018
Страна: Россия
Жанр: Драма
Продолжительность: ~ 00:54:00
Субтитры: отсутствуют

Режиссер: Илья Куликов



В ролях: Владимир Вдовиченков, Ирина Старшенбаум, Анна Котова-Дерябина, Дмитрий Мазуров, Маруся Климова, Алексей Ильин, Ольга Дибцева, Александр Ревенко, Ирина Чериченко, Егор Морозов, Савелий Кудряшов, Юлия Майборода, Никита Абдулов, Валентина Ляпина, Екатерина Рокотова, Вадим Соколов (II), Екатерина Архарова, Алексей Калинин (II), Пётр Корнеев

Описание: Сергей, отец Маши и Тани, занимает высокий пост заместителя министра образования и постоянно меняет женщин, некоторые из которых — ровесницы его детей. Младшая дочь, Маша, — идеалистка: она категорически против участия отца в своей карьере и желает всего добиться сама. Она идет работать в обычную школу, где у неё начинается роман с отцом одного из своих учеников. Старшая дочь, Татьяна, напротив, с радостью пользуется служебным положением отца ради своей карьеры — но совершенно несчастна в семейной жизни. Она заводит интрижки с разными мужчинами, отчаянно пытаясь заполнить пустоту внутри себя.

Качество: WEB-DL 720p
Формат: MKV

Видео: MPEG4 AVC Video, H264, 2.40:1, 1280x536, 25 fps, ~3500 kbps, 0.200 bit/pixel
Аудио: 48.0 kHz, AC3 Dolby Digital, 2/0 (L,R) ch, ~ 192 kbps
скриншот  скриншот  скриншот  скриншот  скриншот  

General
Unique ID : 196392114521601536367584213648724300964 (0x93BFBED3D622B874A16484C2958194A4)
Complete name : D:\Uchitelya.2019.WEB-DL.(720p).ExKinoRay\Uchitelya.(02.seriya).2019.WEB-DL.(720p).ExKinoRay.mkv
Format : Matroska
Format version : Version 4 / Version 2
File size : 1.17 GiB
Duration : 45 min 21 s
Overall bit rate : 3 701 kb/s
Encoded date : UTC 2019-08-22 18:27:31
Writing application : mkvmerge v6.9.1 ('Blue Panther') 64bit built on Apr 18 2014 18:23:38
Writing library : libebml v1.3.0 + libmatroska v1.4.1 / VideoReDo (Lavf56.25.101)

Video
ID : 1
Format : AVC
Format/Info : Advanced Video Codec
Format profile : High@L4.1
Format settings : CABAC / 9 Ref Frames
Format settings, CABAC : Yes
Format settings, ReFrames : 9 frames
Format settings, GOP : M=2, N=24
Codec ID : V_MPEG4/ISO/AVC
Duration : 45 min 21 s
Bit rate : 3 435 kb/s
Width : 1 280 pixels
Height : 536 pixels
Display aspect ratio : 2.40:1
Frame rate mode : Constant
Frame rate : 25.000 FPS
Color space : YUV
Chroma subsampling : 4:2:0
Bit depth : 8 bits
Scan type : Progressive
Bits/(Pixel*Frame) : 0.200
Stream size : 1.09 GiB (93%)
Default : No
Forced : No
Color range : Limited
Color primaries : BT.709
Transfer characteristics : BT.709
Matrix coefficients : BT.709

Audio
ID : 2
Format : AC-3
Format/Info : Audio Coding 3
Codec ID : A_AC3
Duration : 45 min 21 s
Bit rate mode : Constant
Bit rate : 192 kb/s
Channel(s) : 2 channels
Channel positions : Front: L R
Sampling rate : 48.0 kHz
Frame rate : 31.250 FPS (1536 SPF)
Bit depth : 16 bits
Compression mode : Lossy
Stream size : 62.3 MiB (5%)
Language : Russian
Service kind : Complete Main
Default : Yes
Forced : No

Когда раздача ведётся путём добавления новых серий, при каждом добавлении создётся новый торрент. Чтобы начать докачку новой серии, пользователям необходимо сделать следующее:
(1) остановить скачивание,
(2) удалить старый торрент у себя из клиента (старые серии удалять не надо),
(3) скачать новый торрент и запустить его у себя в клиенте вместо старого, при этом указать клиенту путь в старую папку, куда и должно происходить скачивание новых серий.
Ваш клиент при этом должен произвести хеширование (проверку) старой папки (если не производит сам - помогите ему сделать это), и будет докачивать только те серии, которых у вас ещё нет. Старые серии при этом не удаляются, а продолжают раздаваться!
Eсли вы уже удалили старые серии, то предотвратить повторную закачку старых серий можно, отжав галочку в соответсвующих местах при запуске нового торрента. По возможности, желательно не удалять старые серии как можно дольше, чтобы релизер не столько продолжал раздавать старые серии, а смог сконцентрироваться на новых.
pb.wtf



Скачать Учителя через торрент http://img11.lostpic.net/2018/10/06/1901c86c13adf1ed61aa6b7e254cc28c.jpg Скачать, смотреть онлайн Учителя бесплантно в хорошем качестве Описание: Сергей, отец Маши и Тани, занимает высокий пост заместителя министра образования и постоянно меняет женщин, некоторые из которых ... 10 10 11
Торрент: Зарегистрирован [2019-10-23 21:12] · скачан: 93 раз
Статус: √ проверено
Размер: 14.93 GB
Как cкачать? Как скачать Учителя через торрент | UTorrent

% Раздел Тема Автор DL S | L
TNT serials [ 7.16 GB ] Учителя / Сезон: 1 / Серии: 1-12 из 12 [2018 WEB-DLRip-AVC] bober100 Скачать
1 | 0
TNT serials [ 20.45 GB ] Учителя / Сезон: 1 / Серии: 1-12 из 12 [2018 WEB-DL 1080p] bober100 Скачать
1 | 0
TNT serials [ 7.03 GB ] Учителя / Сезон: 1 / Серии: 1-12 из 12 [2018 WEB-DLRip] bober100 Скачать
3 | 0

28-11-2019 20:33  

Отключить всю рекламу на сайте

    Дорогой пользователь! Огромная просьба, поблагодарите релизера, оцените раздачу и оставьте свои комментарий, если Вы скачали Учителя через торрент бесплатно!
    Комментировать посты могут только пользователи прошедшие не сложную регистрацию
    Показать сообщения:    

    Учителя через торрент
    Скачать бесплатно Учителя
    Учителя скачать торрент
    Учителя смотреть онлайн
    Cкачать фильм Учителя бесплатно
    Учителя скачать торрент в хорошем качестве
    Учителя смотреть онлайн бесплатно в хорошем качестве


    Вы не можете начинать темы
    Вы не можете отвечать на сообщения
    Вы не можете редактировать свои сообщения
    Вы не можете удалять свои сообщения
    Вы не можете голосовать в опросах
    Вы не можете прикреплять файлы к сообщениям
    Вы можете скачивать файлы