Ссылка на приватное зеркало всего за 1$. Внимание количество ограничено!!!

OK

1+1

iTunes

мы

OK

1

WEB-DLRip

Джокер

Пифагор

Ведьмак / The Witcher сериал

iTunes

ПШазам

ОК

Оно 2

iTunes

30
pack

Вам бонус

ВАЖНО

!!Акция!!

Alien_RageХит недели

RePack

Resident Evil 21

ИГРА 18+

pack

RePack

jed

RePack

fifa19

RePack

Assassins Creed: Odyssey

RePack

NEED FOR SPEED™ PAYBACK

4 сезон

9 сезон

Бесстыжие 9 сезон

Все сериалы

все сериалы на PB.wtf

RePack

FAR CRY 5
  

Рокетмен / Rocketman (Декстер Флетчер) [2019, Мюзикл, драма, биография, музыка, BDRip-HEVC 1080p, (10bit)] DUB [Лицензия] pb.wtf

Рокетмен через торрент pb.wtf

Раздают: 3 [ 28 KB/s ]
Размер: 4.89 GB | Добавлен: 5 мес. 4 д. назад | Торрент скачан:153 раза
Скачать  

22-08-2019 19:57 Рокетмен Скачать торрент  

Рокетмен / Rocketman
Год выпуска: 2019
Страна: Великобритания США Канада
Жанр: Мюзикл, драма, биография, музыка
Продолжительность: 02:01:16
Перевод: Дублированный | Лицензия
Субтитры: Русские (Forced, full), английские

Режиссер: Декстер Флетчер

rating

В ролях: Тэрон Эджертон, Джейми Белл, Ричард Мэдден, Брайс Даллас Ховард, Джемма Джонс, Стивен Макинтош, Том Беннетт, Мэтью Иллесли, Кит Коннор, Чарли Роу

Описание: История превращения застенчивого парня Реджинальда Дуайта, талантливейшего пианиста из маленького городка, в суперзвезду и культовую фигуру мировой поп-музыки Элтона Джона.

Качество: BDRip-HEVC 1080p
Формат: MKV

Видео: MPEG-4 AVC, 1920x804, 4491 Kbit/s, 23.976 fps, 10 бит
Аудио#1: 48 kHz, AC3, 5.1, 640 Kbps | Лицензия | RUS |
Аудио#2: 48 kHz, AC3, 5.1, 640 Kbps | Оригинал | ENG |
скриншот  
скриншот  скриншот  скриншот  скриншот  

Общее
Уникальный идентификатор : 265631814013309747098869793736074754656 (0xC7D6D39420ED7A2B83758BEAB8C07A60)
Полное имя : F:Rocketman. 2019. 1080p. HEVC. 10bit.mkv
Формат : Matroska
Версия формата : Version 4 / Version 2
Размер файла : 4,89 Гбайт
Продолжительность : 2 ч. 1 м.
Общий поток : 5773 Кбит/сек
Дата кодирования : UTC 2019-08-22 18:13:26
Программа кодирования : mkvmerge v28.2.0 ('The Awakening') 64-bit
Библиотека кодирования : libebml v1.3.6 + libmatroska v1.4.9
Обложка : Yes
Attachments : cover.jpg

Видео
Идентификатор : 1
Формат : HEVC
Формат/Информация : High Efficiency Video Coding
Профиль формата : Main 10@L4@Main
Идентификатор кодека : V_MPEGH/ISO/HEVC
Продолжительность : 2 ч. 1 м.
Битрейт : 4491 Кбит/сек
Ширина : 1920 пикселей
Высота : 804 пикселя
Соотношение сторон : 2,40:1
Режим частоты кадров : Постоянный
Частота кадров : 23,976 (24000/1001) кадра/сек
Цветовое пространство : YUV
Субдискретизация насыщенности : 4:2:0
Битовая глубина : 10 бит
Бит/(Пиксели*Кадры) : 0.121
Размер потока : 3,80 Гбайт (78%)
Библиотека кодирования : x265 3.0_Au+18-768ab38fd5fd:[Windows][GCC 8.3.0][64 bit] 10bit
Настройки программы : cpuid=1111039 / frame-threads=3 / numa-pools=8 / wpp / no-pmode / no-pme / no-psnr / no-ssim / log-level=2 / input-csp=1 / input-res=1920x804 / interlace=0 / total-frames=174472 / level-idc=0 / high-tier=1 / uhd-bd=0 / ref=4 / no-allow-non-conformance / no-repeat-headers / annexb / no-aud / no-hrd / info / hash=0 / no-temporal-layers / open-gop / min-keyint=23 / keyint=250 / gop-lookahead=0 / bframes=8 / b-adapt=2 / b-pyramid / bframe-bias=0 / rc-lookahead=25 / lookahead-slices=4 / scenecut=40 / radl=0 / no-splice / no-intra-refresh / ctu=64 / min-cu-size=8 / rect / no-amp / max-tu-size=32 / tu-inter-depth=1 / tu-intra-depth=1 / limit-tu=0 / rdoq-level=2 / dynamic-rd=0.00 / no-ssim-rd / signhide / no-tskip / nr-intra=0 / nr-inter=0 / no-constrained-intra / strong-intra-smoothing / max-merge=3 / limit-refs=3 / limit-modes / me=3 / subme=3 / merange=57 / temporal-mvp / weightp / no-weightb / no-analyze-src-pics / deblock=0:0 / no-sao / no-sao-non-deblock / rd=4 / no-early-skip / rskip / no-fast-intra / no-tskip-fast / no-cu-lossless / no-b-intra / no-splitrd-skip / rdpenalty=0 / psy-rd=2.00 / psy-rdoq=1.00 / no-rd-refine / no-lossless / cbqpoffs=0 / crqpoffs=0 / rc=crf / crf=18.0 / qcomp=0.60 / qpstep=4 / stats-write=0 / stats-read=0 / ipratio=1.40 / pbratio=1.30 / aq-mode=3 / aq-strength=1.00 / cutree / zone-count=0 / no-strict-cbr / qg-size=32 / no-rc-grain / qpmax=69 / qpmin=0 / no-const-vbv / sar=0 / overscan=0 / videoformat=5 / range=0 / colorprim=2 / transfer=2 / colormatrix=2 / chromaloc=0 / display-window=0 / max-cll=0,0 / min-luma=0 / max-luma=1023 / log2-max-poc-lsb=8 / vui-timing-info / vui-hrd-info / slices=1 / no-opt-qp-pps / no-opt-ref-list-length-pps / no-multi-pass-opt-rps / scenecut-bias=0.05 / no-opt-cu-delta-qp / aq-motion / no-hdr / no-hdr-opt / no-dhdr10-opt / no-idr-recovery-sei / analysis-reuse-level=5 / scale-factor=0 / refine-intra=0 / refine-inter=0 / refine-mv=0 / refine-ctu-distortion=0 / no-limit-sao / ctu-info=0 / no-lowpass-dct / refine-analysis-type=0 / copy-pic=1 / max-ausize-factor=1.0 / no-dynamic-refine / no-single-sei / no-hevc-aq / no-svt / qp-adaptation-range=1.00
Default : Да
Forced : Нет

Аудио #1
Идентификатор : 2
Формат : AC-3
Формат/Информация : Audio Coding 3
Идентификатор кодека : A_AC3
Продолжительность : 2 ч. 1 м.
Вид битрейта : Постоянный
Битрейт : 640 Кбит/сек
Каналы : 6 каналов
Расположение каналов : Front: L C R, Side: L R, LFE
Частота : 48,0 КГц
Частота кадров : 31,250 кадров/сек (1536 SPF)
Битовая глубина : 16 бит
Метод сжатия : С потерями
Размер потока : 555 Мбайт (11%)
Заголовок : Dub | DD 5.1 @ 640 kbps - Blu-Ray 4K EUR
Язык : Russian
ServiceKind/ : Complete Main
Default : Да
Forced : Нет

Аудио #2
Идентификатор : 3
Формат : AC-3
Формат/Информация : Audio Coding 3
Идентификатор кодека : A_AC3
Продолжительность : 2 ч. 1 м.
Вид битрейта : Постоянный
Битрейт : 640 Кбит/сек
Каналы : 6 каналов
Расположение каналов : Front: L C R, Side: L R, LFE
Частота : 48,0 КГц
Частота кадров : 31,250 кадров/сек (1536 SPF)
Битовая глубина : 16 бит
Метод сжатия : С потерями
Размер потока : 555 Мбайт (11%)
Заголовок : Original | DD 5.1 @ 640 kbps
Язык : English
ServiceKind/ : Complete Main
Default : Нет
Forced : Нет

Текст #1
Идентификатор : 4
Формат : UTF-8
Идентификатор кодека : S_TEXT/UTF8
Идентификатор кодека/Информация : UTF-8 Plain Text
Продолжительность : 1 ч. 53 м.
Битрейт : 18 бит/сек
ElementCount : 344
Размер потока : 15,6 Кбайт (0%)
Заголовок : Forced
Язык : Russian
Default : Да
Forced : Нет

Текст #2
Идентификатор : 5
Формат : UTF-8
Идентификатор кодека : S_TEXT/UTF8
Идентификатор кодека/Информация : UTF-8 Plain Text
Продолжительность : 1 ч. 59 м.
Битрейт : 73 бит/сек
ElementCount : 1359
Размер потока : 64,5 Кбайт (0%)
Заголовок : Full
Язык : Russian
Default : Нет
Forced : Нет

Текст #3
Идентификатор : 6
Формат : UTF-8
Идентификатор кодека : S_TEXT/UTF8
Идентификатор кодека/Информация : UTF-8 Plain Text
Продолжительность : 1 ч. 50 м.
Битрейт : 50 бит/сек
ElementCount : 1314
Размер потока : 41,3 Кбайт (0%)
Заголовок : Full
Язык : English
Default : Нет
Forced : Нет

Меню
00:00:00.000 : en:Chapter 01
00:05:50.725 : en:Chapter 02
00:11:20.805 : en:Chapter 03
00:18:43.080 : en:Chapter 04
00:22:39.858 : en:Chapter 05
00:28:01.054 : en:Chapter 06
00:34:21.392 : en:Chapter 07
00:38:35.229 : en:Chapter 08
00:42:52.444 : en:Chapter 09
00:50:40.579 : en:Chapter 10
00:57:30.905 : en:Chapter 11
01:04:05.800 : en:Chapter 12
01:09:28.914 : en:Chapter 13
01:16:10.941 : en:Chapter 14
01:24:43.745 : en:Chapter 15
01:29:09.010 : en:Chapter 16
01:35:22.383 : en:Chapter 17
01:42:46.243 : en:Chapter 18
01:51:11.831 : en:Chapter 19
01:55:25.293 : en:Chapter 20

pb.wtf



Скачать Рокетмен через торрент https://img16.lostpic.net/2019/08/18/82952161eb2413e73e4c8d415e4cfe93.jpg Скачать фильм Рокетмен через торрент бесплантно в хорошем качестве Описание: История превращения застенчивого парня Реджинальда Дуайта, талантливейшего пианиста из маленького городка, в суперзвезду и ... 10 10 3
Торрент: Зарегистрирован [2019-08-22 19:57] · скачан: 153 раз
Статус: √ проверено
Размер: 4.89 GB
Как cкачать? Как скачать Рокетмен через торрент | qTorrent

% Раздел Тема Автор DL S | L
Фильмы [HD 720p, 1080p] (Хороший звук DUB, MVO) [ 8.72 GB ] Рокетмен / Rocketman [2019 Мюзикл биография музыка BDRip 1080p] DUB [] bober100 Скачать
8 | 0
Фильмы (Blu-ray, BD-Remux, HDDVD) [ 44.98 GB ] Рокетмен / Rocketman [2019 Мюзикл биография музыка Blu-ray EUR 1080p] DUB [] bober100 Скачать
1 | 0
Ultra HD (UHD: 2K, 4K, 8K) — видео сверхвысокой чёткости [ 61.23 GB ] Рокетмен / Rocketman [2019 Мюзикл биография музыка UHD BDRemux 2160p] [Dolby Vision TV] DUB [] bober100 Скачать
1 | 0
Ultra HD (UHD: 2K, 4K, 8K) — видео сверхвысокой чёткости [ 22.62 GB ] Рокетмен / Rocketman [2019 Мюзикл биография музыка UHD BDRip 2160p] [SDR] DUB [] bober100 Скачать
1 | 0
Фильмы 2019-2020 [DVDrip, WEB-DLRip, HDrip] (DUB, MVO) [ 2.41 GB ] Рокетмен / Rocketman [2019 Мюзикл биография музыка BDRip-AVC] DUB [] MVO - ExKinoRay Enigma2010 Скачать
26 | 0
Фильмы [HD 720p, 1080p] (Хороший звук DUB, MVO) [ 4.32 GB ] Рокетмен / Rocketman [2019 Мюзикл биография музыка BDRip 720p] DUB [] - ExKinoRay Enigma2010 Скачать
125 | 6
Ultra HD (UHD: 2K, 4K, 8K) — видео сверхвысокой чёткости [ 82.77 GB ] Рокетмен / Rocketman [2019 Мюзикл биография музыка UHD Blu-Ray EUR 2160p] [Dolby Vision] DUB [] bober100 Скачать
2 | 0

28-11-2019 20:33  

Отключить всю рекламу на сайте

    Дорогой пользователь! Огромная просьба, поблагодарите релизера, оцените раздачу и оставьте свои комментарий, если Вы скачали Рокетмен через торрент бесплатно! Внесите свою лепту в развитие PiratBit!
    Комментировать посты могут только пользователи прошедшие не сложную регистрацию
    Показать сообщения:    

    Рокетмен через торрент
    Скачать бесплатно Рокетмен
    Рокетмен скачать торрент
    Рокетмен смотреть онлайн
    Cкачать фильм Рокетмен бесплатно
    Рокетмен скачать торрент в хорошем качестве
    Рокетмен смотреть онлайн бесплатно в хорошем качестве


    Вы не можете начинать темы
    Вы не можете отвечать на сообщения
    Вы не можете редактировать свои сообщения
    Вы не можете удалять свои сообщения
    Вы не можете голосовать в опросах
    Вы не можете прикреплять файлы к сообщениям
    Вы можете скачивать файлы