новый адрес
Мега распродажа FORZA HORIZON 4 ULTIMATE+ВСЕ DLC+ОНЛАЙН всего за 499р. 349 руб. (супер цена). Внимание количество ограничено!!!

iTunes

1+1

iTunes

мы

iTunes

1

iTunes

Чернобыль

iTunes

Ральф против интернета

Лицензия

ПШазам

Лицензия

Игра престолов

Лицензия

30
pack

ВАЖНО

!!Акция!!

Alien_RageХит недели

RePack

Resident Evil 21

ИГРА 18+

pack

RePack

Metro:Exodus

!!Акция!!

Alien_Rage

RePack

fifa19

RePack

Assassins Creed: Odyssey

RePack

NEED FOR SPEED™ PAYBACK

3 сезон

9 сезон

Бесстыжие 9 сезон

Все сериалы

все сериалы на PB.wtf

RePack

FAR CRY 5
Ребята, катастрофически не хватает 1900р. для оплаты серверов за Октябрь (всвязи с блокировками трафик упал в 3 раза), 1-2р., выручайте.
  

Рубеж (Дмитрий Тюрин) [2018, фантастика, приключения, военный, история, драма, BDRip-AVC] [iTunes] - ExKinoRay pb.wtf

Рубеж через торрент pb.wtf

Раздают: 13 [ 0 KB/s ]
Размер: 1.74 GB | Добавлен: 2 мес. 27 д. назад | Торрент скачан:93 раза
Скачать  

23-08-2019 02:02 Рубеж Скачать торрент  

Информация о фильме
Название: Рубеж
Год выхода: 2018
Жанр: Фантастика, приключения, военный, история, драма
Страна: Россия
Студия: Централ Партнершип, Кит фильм
Продолжительность: 01:36:18
Язык: Русский | iTunes
Режиссер: Дмитрий Тюрин
В ролях: Павел Прилучный, Станислав Дужников, Кристина Бродская, Александр Коршунов, Виктор Добронравов, Игорь Скляр, Дмитрий Куличков, Александр Соколовский, Семен Трескунов, Кирилл Кяро

Описание:
У Михаила есть всё. Всё, кроме любви, и его это устраивает. Но вот он встречает ЕЁ, и всё, чего он добился в этой жизни, рушится в один миг. Не все умеют любить. Не каждому дано любить... Чтобы обрести право на любовь, Михаил получает возможность перемещаться во времени. Туда, где нет кредиток и гаджетов, где гибнут миллионы людей, и превращаются в руины города. Теперь, чтобы не сойти с ума и остаться в настоящем, ему придется принять правила опасного экзистенциального квеста.



Файл
Формат: MKV
Качество: BDRip-AVC
Видео: MPEG-4 AVC, 1024x428 (2.40:1), 25.000 fps, 2200 Kbps, 0.201 bit/pixel
Аудио: 48 kHz, AC3, 5.1 ch, ~384 kbps avg
Субтитры: Французские форс. (хардсаб)
General
Unique ID : 250270148421173127879503613120527693692 (0xBC4846FD554B23D3A8A1FFD48803777C)
Complete name : F:\Рубеж.2018.BDRip.AVC.ExKinoRay.mkv
Format : Matroska
Format version : Version 2
File size : 1.74 GiB
Duration : 1 h 36 min
Overall bit rate : 2 585 kb/s
Movie name : Рубеж 2017 from ExKinoRay
Encoded date : UTC 2019-08-22 16:47:54
Writing application : mkvmerge v5.6.0 ('Kenya Kane') built on May 27 2012 16:44:04
Writing library : libebml v1.2.3 + libmatroska v1.3.0

Video
ID : 1
Format : AVC
Format/Info : Advanced Video Codec
Format profile : High@L4.1
Format settings, CABAC : Yes
Format settings, ReFrames : 12 frames
Codec ID : V_MPEG4/ISO/AVC
Duration : 1 h 36 min
Bit rate : 2 200 kb/s
Width : 1 024 pixels
Height : 428 pixels
Display aspect ratio : 2.40:1
Frame rate mode : Constant
Frame rate : 25.000 FPS
Color space : YUV
Chroma subsampling : 4:2:0
Bit depth : 8 bits
Scan type : Progressive
Bits/(Pixel*Frame) : 0.201
Stream size : 1.45 GiB (83%)
Title : Enigma
Writing library : x264 core 152 r2851 ba24899
Encoding settings : cabac=1 / ref=12 / deblock=1:-3:-3 / analyse=0x3:0x113 / me=umh / subme=10 / psy=1 / psy_rd=1.00:0.00 / mixed_ref=1 / me_range=32 / chroma_me=1 / trellis=2 / 8x8dct=1 / cqm=0 / deadzone=21,11 / fast_pskip=0 / chroma_qp_offset=-2 / threads=12 / lookahead_threads=3 / sliced_threads=0 / nr=0 / decimate=0 / interlaced=0 / bluray_compat=0 / constrained_intra=0 / bframes=10 / b_pyramid=2 / b_adapt=2 / b_bias=0 / direct=3 / weightb=1 / open_gop=0 / weightp=2 / keyint=240 / keyint_min=24 / scenecut=40 / intra_refresh=0 / rc=2pass / mbtree=0 / bitrate=2200 / ratetol=1.0 / qcomp=0.60 / qpmin=0 / qpmax=51 / qpstep=4 / cplxblur=20.0 / qblur=0.5 / ip_ratio=1.13 / pb_ratio=1.30 / aq=3:1.00
Language : English
Default : Yes
Forced : No
Color range : Limited
Color primaries : BT.709
Transfer characteristics : BT.709
Matrix coefficients : BT.709

Audio
ID : 2
Format : AC-3
Format/Info : Audio Coding 3
Mode extension : CM (complete main)
Format settings, Endianness : Big
Codec ID : A_AC3
Duration : 1 h 36 min
Bit rate mode : Constant
Bit rate : 384 kb/s
Channel(s) : 6 channels
Channel positions : Front: L C R, Side: L R, LFE
Sampling rate : 48.0 kHz
Frame rate : 31.250 FPS (1536 spf)
Compression mode : Lossy
Stream size : 265 MiB (15%)
Title : iTunes
Language : Russian
Default : Yes
Forced : No

Menu
00:00:00.000 : ru:Chapter 1
00:11:35.080 : ru:Chapter 2
00:26:25.400 : ru:Chapter 3
00:30:20.120 : ru:Chapter 4
00:31:59.480 : ru:Chapter 5
00:36:28.400 : ru:Chapter 6
00:39:40.240 : ru:Chapter 7
00:42:03.000 : ru:Chapter 8
00:48:37.080 : ru:Chapter 9
00:51:20.480 : ru:Chapter 10
01:01:31.920 : ru:Chapter 11
01:08:58.040 : ru:Chapter 12
01:10:11.040 : ru:Chapter 13
01:14:33.400 : ru:Chapter 14
01:18:36.480 : ru:Chapter 15
01:31:18.080 : ru:Chapter 16


Релиз от:

Автор релиза: pb.wtf



Скачать Рубеж через торрент http://i99.fastpic.ru/big/2018/0405/d9/0981458feb8524d55c15a176418facd9.png Скачать фильм Рубеж через торрент бесплантно в хорошем качестве Описание: У Михаила есть всё. Всё, кроме любви, и его это устраивает. Но вот он встречает ЕЁ, и всё, чего он добился в этой жизни, рушится ... 8.5 10 2
Info! Золотая раздача, скачанное не засчитывается.
Торрент: Зарегистрирован [2019-08-23 02:02] · скачан: 93 раз
Статус: √ проверено
Размер: 1.74 GB
Как cкачать? Как скачать Рубеж через торрент | qTorrent

% Раздел Тема Автор DL S | L
Наши фильмы (HD, WEB-DL 720p, 1080p) [ 2.98 GB ] Рубеж [2018 военный история BDRip 720p] - ExKinoRay Enigma2010 Скачать
46 | 1
Наши новые фильмы 2018-2019 [ 2.5 GB ] Балканский рубеж [2019 WEB-DLRip-AVC] - ExKinoRay Enigma2010 Скачать
147 | 1
Фильмы 2019 [DVDrip, WEB-DLRip, HDrip] (DUB, MVO) [ 1.94 GB ] Рубеж мира / Rim of the World [2019 WEB-DLRip-AVC] - ExKinoRay Enigma2010 Скачать
41 | 1
Фильмы 2018 [DVDrip, WEB-DLRip, HDrip] (DUB, MVO) [ 3.21 GB ] Тихоокеанский рубеж 2 / Pacific Rim Uprising [2018 BDRip-AVC] MVO [HDrezka Studio] - ExKinoRay Enigma2010 Скачать
3 | 0
Фильмы 2018 [DVDrip, WEB-DLRip, HDrip] (DUB, MVO) [ 2.38 GB ] Тихоокеанский рубеж 2 / Pacific Rim Uprising [2018 WEB-DLRip-AVC] Dub MVO [HDrezka Studio] - ExKinoRay Enigma2010 Скачать
6 | 0
Наши новые фильмы 2018-2019 [ 1.88 GB ] Рубеж [2018 военный история WEB-DLRip-AVC] - ExKinoRay Enigma2010 Скачать
6 | 0


>> Регистрируемся здесь <<






Отзывы и комментарии о схеме читаем и пишем здесь: ---> Отзывы и комментарии о схеме

Новые благодарочки в телеграм довольных пользователей:
скриншот   скриншот   скриншот   скриншот   скриншот
    Дорогой пользователь! Огромная просьба, поблагодарите релизера, оцените раздачу и оставьте свои комментарий, если Вы скачали Рубеж через торрент бесплатно! Внесите свою лепту в развитие PiratBit!
    Комментировать посты могут только пользователи прошедшие не сложную регистрацию
    Показать сообщения:    

    Рубеж через торрент
    Скачать бесплатно Рубеж
    Рубеж скачать торрент
    Рубеж смотреть онлайн
    Cкачать фильм Рубеж бесплатно
    Рубеж скачать торрент в хорошем качестве
    Рубеж смотреть онлайн бесплатно в хорошем качестве


    Вы не можете начинать темы
    Вы не можете отвечать на сообщения
    Вы не можете редактировать свои сообщения
    Вы не можете удалять свои сообщения
    Вы не можете голосовать в опросах
    Вы не можете прикреплять файлы к сообщениям
    Вы можете скачивать файлы