Ссылка на приватное зеркало всего за 1$. Внимание количество ограничено!!!

iTunes

1+1

iTunes

мы

WEB-DL

1

iTunes

Чернобыль

iTunes

Ральф против интернета

Лицензия

ПШазам

Лицензия

Оно 2

Лицензия

30
pack

Вам бонус

ВАЖНО

!!Акция!!

Alien_RageХит недели

RePack

Resident Evil 21

ИГРА 18+

pack

RePack

jed

!!Акция!!

Alien_Rage

RePack

fifa19

RePack

Assassins Creed: Odyssey

RePack

NEED FOR SPEED™ PAYBACK

3 сезон

9 сезон

Бесстыжие 9 сезон

Все сериалы

все сериалы на PB.wtf

RePack

FAR CRY 5
Ребята, катастрофически не хватает 1900р. для оплаты серверов за Октябрь (всвязи с блокировками трафик упал в 3 раза), 1-2р., выручайте.
  

По воле божьей / Grâce à Dieu (Франсуа Озон) [2018, Драма, BDRip-AVC] DUB [iTunes] pb.wtf

По воле божьей через торрент pb.wtf

Раздают: 2 [ 0 KB/s ]
Размер: 2.31 GB | Добавлен: 3 мес. 21 д. назад | Торрент скачан:70 раз
Скачать  

23-08-2019 03:53 По воле божьей Скачать торрент  

По воле божьей / Grâce à Dieu
Год выпуска: 2018
Страна: Франция, Бельгия
Жанр: Драма
Продолжительность: 02:17:29
Перевод: Дублированный | iTunes
Субтитры: отсутствуют

Режиссер: Франсуа Озон

rating

В ролях: Мельвиль Пупо, Дени Меноше, Сванн Арло, Эрик Каравака, Франсуа Марторе, Бернар Верле, Жозиан Баласко, Мартина Эрель, Элен Венсан, Франсуа Шатто

Описание: Александр, Франсуа и Жиль, взрослые состоявшиеся мужчины, объединяются в борьбе против почтенного священника, некогда поломавшего жизнь им и еще десяткам мальчиков. В этой праведной битве - с собственной уязвимостью и чужими предрассудками, с косными институтами и молчаливыми свидетелями - каждому из мужчин предстоит выбрать, во что верить, над чем смеяться, и кого прощать.

Качество: BDRip-AVC
Формат: MKV

Видео: 1024x554 (1.85:1), 24,000 fps, x264 ~2 021 kbps avg, 0.148 bit/pixel
Аудио: 48 kHz, AC3 Dolby Digital, 3/2 (L,C,R,l,r) + LFE ch, ~384.00 kbps avg | RUS (iTunes)
скриншот  скриншот  скриншот  скриншот  скриншот  

Общее
Уникальный идентификатор : 190802284646143736430801721422298616366 (0x8F8B2EEFBF4252BBD8A609875DE6122E)
Полное имя : F:OlLanDGroupGrace.A.Dieu.2018.BDRip(AVC).OllanDGroup.mkv
Формат : Matroska
Версия формата : Version 4 / Version 2
Размер файла : 2,31 Гбайт
Продолжительность : 2 ч. 17 м.
Общий поток : 2405 Кбит/сек
Название фильма : Grace.A.Dieu.2018 #TorpedoUK#
Дата кодирования : UTC 2019-08-23 03:17:29
Программа кодирования : mkvmerge v29.0.0 ('Like It Or Not') 64-bit
Библиотека кодирования : libebml v1.3.6 + libmatroska v1.4.9

Видео
Идентификатор : 1
Формат : AVC
Формат/Информация : Advanced Video Codec
Профиль формата : High@L4.1
Параметр CABAC формата : Да
Параметр ReFrames формата : 10 кадров
Идентификатор кодека : V_MPEG4/ISO/AVC
Продолжительность : 2 ч. 17 м.
Битрейт : 2021 Кбит/сек
Ширина : 1024 пикселя
Высота : 554 пикселя
Соотношение сторон : 1,85:1
Режим частоты кадров : Постоянный
Частота кадров : 24,000 кадра/сек
Цветовое пространство : YUV
Субдискретизация насыщенности : 4:2:0
Битовая глубина : 8 бит
Тип развёртки : Прогрессивная
Бит/(Пиксели*Кадры) : 0.148
Размер потока : 1,94 Гбайт (84%)
Библиотека кодирования : x264 core 146 r2538 121396c
Настройки программы : cabac=1 / ref=10 / deblock=1:-2:-3 / analyse=0x3:0x113 / me=umh / subme=11 / psy=1 / psy_rd=0.90:0.10 / mixed_ref=1 / me_range=48 / chroma_me=1 / trellis=2 / 8x8dct=1 / cqm=0 / deadzone=21,11 / fast_pskip=1 / chroma_qp_offset=-3 / threads=6 / lookahead_threads=1 / sliced_threads=0 / nr=0 / decimate=1 / interlaced=0 / bluray_compat=0 / constrained_intra=0 / bframes=11 / b_pyramid=2 / b_adapt=2 / b_bias=0 / direct=3 / weightb=1 / open_gop=0 / weightp=2 / keyint=240 / keyint_min=23 / scenecut=40 / intra_refresh=0 / rc_lookahead=40 / rc=2pass / mbtree=0 / bitrate=2021 / ratetol=1.0 / qcomp=0.60 / qpmin=0 / qpmax=69 / qpstep=4 / cplxblur=20.0 / qblur=0.5 / vbv_maxrate=50000 / vbv_bufsize=62500 / nal_hrd=none / filler=0 / ip_ratio=1.40 / pb_ratio=1.30 / aq=1:1.00
Язык : English
Default : Да
Forced : Нет

Аудио
Идентификатор : 2
Формат : AC-3
Формат/Информация : Audio Coding 3
Расширение режима : CM (complete main)
Параметр Endianness формата : Big
Идентификатор кодека : A_AC3
Продолжительность : 2 ч. 17 м.
Вид битрейта : Постоянный
Битрейт : 384 Кбит/сек
Каналы : 6 каналов
Расположение каналов : Front: L C R, Side: L R, LFE
Частота : 48,0 КГц
Частота кадров : 31,250 кадров/сек (1536 spf)
Битовая глубина : 16 бит
Метод сжатия : С потерями
Размер потока : 378 Мбайт (16%)
Заголовок : DUB [iTunes]
Язык : Russian
Default : Да
Forced : Нет

Меню
00:00:00.000 : :Глава 01
00:11:57.416 : :Глава 02
00:23:38.333 : :Глава 03
00:31:06.666 : :Глава 04
00:41:32.000 : :Глава 05
00:56:02.500 : :Глава 06
01:06:39.625 : :Глава 07
01:19:04.875 : :Глава 08
01:28:45.958 : :Глава 09
01:40:01.083 : :Глава 10
01:49:56.833 : :Глава 11
02:01:04.791 : :Глава 12

pb.wtf



Скачать По воле божьей через торрент https://i89.fastpic.ru/big/2019/0823/a3/580c12f6f859a18aadc36af7f06cb1a3.jpg Скачать фильм По воле божьей через торрент бесплантно в хорошем качестве Описание: Александр, Франсуа и Жиль, взрослые состоявшиеся мужчины, объединяются в борьбе против почтенного священника, некогда поломавшего ... 10 10 3
Торрент: Зарегистрирован [2019-08-23 03:53] · скачан: 70 раз
Статус: √ проверено
Размер: 2.31 GB
Как cкачать? Как скачать По воле божьей через торрент | qTorrent

% Раздел Тема Автор DL S | L
Фильмы [HD 720p, 1080p] (Хороший звук DUB, MVO) [ 15.48 GB ] По воле божьей / Grâce à Dieu [2018 BDRip 1080p] bober100 Скачать
3 | 0
Фильмы 2018 [DVDrip, WEB-DLRip, HDrip] (DUB, MVO) [ 2.12 GB ] По воле божьей / Grâce à Dieu [2018 BDRip] bober100 Скачать
2 | 0
Фильмы 2019 [DVDrip, WEB-DLRip, HDrip] (DUB, MVO) [ 1.46 GB ] По воле божьей / Grâce à Dieu [2018 BDRip] bober100 Скачать
2 | 0

28-11-2019 20:33  

Отключить всю рекламу на сайте

    Дорогой пользователь! Огромная просьба, поблагодарите релизера, оцените раздачу и оставьте свои комментарий, если Вы скачали По воле божьей через торрент бесплатно! Внесите свою лепту в развитие PiratBit!
    Комментировать посты могут только пользователи прошедшие не сложную регистрацию
    Показать сообщения:    

    По воле божьей через торрент
    Скачать бесплатно По воле божьей
    По воле божьей скачать торрент
    По воле божьей смотреть онлайн
    Cкачать фильм По воле божьей бесплатно
    По воле божьей скачать торрент в хорошем качестве
    По воле божьей смотреть онлайн бесплатно в хорошем качестве


    Вы не можете начинать темы
    Вы не можете отвечать на сообщения
    Вы не можете редактировать свои сообщения
    Вы не можете удалять свои сообщения
    Вы не можете голосовать в опросах
    Вы не можете прикреплять файлы к сообщениям
    Вы можете скачивать файлы