Доктор Стрэндж

Лицензия

Добыча

Дубляж

Уэнсдэй

1 сезон

Тор

Дубляж

В эфире

Дубляж

Там, где раки поют

MVO

Властелин колец

1 сезон

Deluxe

pack

Рекомендуем

30

Пиратка

ВАЖНО

ВАЖНО

Ghostwire

Пиратка

jed

RePack

nioh2

RePack

RDR2

RePack

NEED FOR SPEED™ PAYBACK

RePack

скачать торрент

Кинопоиск HD

Острые козырьки 6 сезон

6 сезон

FAR CRY 6

RePack

скачать торрент

Лицензия

скачать торрент

MVO

1

1 сезон

скачать торрент

1 сезон

скачать торрент

Лицензия

  

Мстители: Финал 3Д / Avengers: Endgame 3D (Энтони Руссо, Джо Руссо) [2019, фантастика, фэнтези, боевик, приключения, BDRip 1080p] [Half OverUnder] Дубляж (rus, ukr) [iTunes]

Мстители: Финал 3Д через торрент pb.wtf

Раздают: 1 [ 0 KB/s ]
Размер: 17.3 GB | Добавлен: 3 года 3 мес. назад | Торрент скачан:330 раз
Смотреть онлайн | Скачать   

23-08-2019 16:11 Мстители: Финал 3Д Скачать торрент  

Мстители: Финал 3Д
Avengers: Endgame 3D
«Отомстим за павших»
Год выпуска: 2019
Страна: США
Жанр: фантастика, фэнтези, боевик, приключения
Продолжительность: 03:01:11
Перевод: Дублированный | iTunes
Субтитры:
Вшитые (softsub):
#1 - Русские Форсированные [вер. Ash61] (включены по умолчанию)
#2 - Русские SDH (iTunes)
#3 - Украинские Форсированные [вер. Ash61]
#4 - English Forced (BD 3D Eur)
#5 - English Full
#6 - English SDH

Внешние (UTF-8):
#1 - Русские Форсированные [вер. Ash61] (включены по умолчанию)
#2 - Русские SDH (iTunes)
#3 - Украинские Форсированные [вер. Ash61]

Режиссер: Энтони Руссо, Джо Руссо

rating

В ролях:

Роберт Дауни мл. (Tony Stark / Iron Man), Крис Эванс (Steve Rogers / Captain America), Марк Руффало (Bruce Banner / Hulk), Крис Хемсворт (Thor), Скарлетт Йоханссон (Natasha Romanoff / Black Widow), Джереми Реннер (Clint Barton / Hawkeye), Дон Чидл (James Rhodes / War Machine), Пол Радд (Scott Lang / Ant-Man), Бри Ларсон (Carol Danvers / Captain Marvel), Карен Гиллан (Nebula), Бенедикт Камбербэтч (Doctor Strange), Чедвик Боузман (T'Challa / Black Panther)
Описание: Оставшиеся в живых члены команды Мстителей и их союзники должны разработать новый план, который поможет противостоять разрушительным действиям могущественного титана Таноса. После наиболее масштабной и трагической битвы в истории они не могут допустить ошибку.

Качество: BDRip 1080p
Формат: MKV

Видео: AVC / 1920х1080p / 23,976 fps / 12.0 Mbps
Аудио#1: Русский / AC3 / 48 KHz / 5.1 ch / 384 Kbps (Дубляж - iTunes)
Аудио#2: Украинский / AC3 / 48 KHz / 5.1 ch / 640 Kbps (Дубляж) (Спасибо Hurtom!)
Аудио#3: Английский / AC3 / 48 KHz / 5.1 ch / 640 Kbps (Original - BD 3D)
Формат 3D: Half OverUnder / Вертикальная анаморфная стереопара
Порядок ракурсов: левый ракурс первый
скриншот  скриншот  скриншот  скриншот  скриншот  

скриншот  скриншот  скриншот  скриншот  скриншот  

General
Unique ID : 190212292035338574168250793525307492237 (0x8F198E0E110ABFBEB951725C3A4BC78D)
Complete name : J:Avengers.Endgame(2019)3D-hOU(Ash61)iTunesAvengers.Endgame(2019)3D-hOU(Ash61)iTunes.mkv
Format : Matroska
Format version : Version 2
File size : 17.3 GiB
Duration : 3h 1mn
Overall bit rate : 13.6 Mbps
Movie name : Мстители: Финал / Avengers: Endgame (2019) in 3D
Encoded date : UTC 2019-08-23 11:22:17
Writing application : mkvmerge v5.8.0 ('No Sleep / Pillow') built on Sep 2 2012 15:37:04
Writing library : libebml v1.2.3 + libmatroska v1.3.0

Video
ID : 1
Format : AVC
Format/Info : Advanced Video Codec
Format profile : [email protected]
Format settings, CABAC : Yes
Format settings, ReFrames : 4 frames
Codec ID : V_MPEG4/ISO/AVC
Duration : 3h 1mn
Bit rate : 12.0 Mbps
Width : 1 920 pixels
Height : 1 080 pixels
Display aspect ratio : 16:9
Frame rate mode : Constant
Frame rate : 23.976 (24000/1001) fps
Color space : YUV
Chroma subsampling : 4:2:0
Bit depth : 8 bits
Scan type : Progressive
Bits/(Pixel*Frame) : 0.241
Stream size : 14.8 GiB (86%)
Title : BDRip by Ash61
Writing library : x264 core 146 r2538 121396c
Encoding settings : cabac=1 / ref=4 / deblock=1:-3:-3 / analyse=0x3:0x113 / me=umh / subme=10 / psy=1 / psy_rd=1.00:0.00 / mixed_ref=1 / me_range=32 / chroma_me=1 / trellis=2 / 8x8dct=1 / cqm=0 / deadzone=21,11 / fast_pskip=0 / chroma_qp_offset=-2 / threads=12 / lookahead_threads=3 / sliced_threads=0 / nr=0 / decimate=0 / interlaced=0 / bluray_compat=0 / constrained_intra=0 / bframes=10 / b_pyramid=2 / b_adapt=2 / b_bias=0 / direct=3 / weightb=1 / open_gop=0 / weightp=2 / keyint=250 / keyint_min=23 / scenecut=40 / intra_refresh=0 / rc_lookahead=60 / rc=2pass / mbtree=0 / bitrate=12000 / ratetol=1.0 / qcomp=0.70 / qpmin=0 / qpmax=69 / qpstep=4 / cplxblur=20.0 / qblur=0.5 / vbv_maxrate=40000 / vbv_bufsize=30000 / nal_hrd=none / filler=0 / frame-packing=4 / ip_ratio=1.40 / pb_ratio=1.30 / aq=1:0.70
Language : English
Default : Yes
Forced : No

Audio #1
ID : 2
Format : AC-3
Format/Info : Audio Coding 3
Mode extension : CM (complete main)
Format settings, Endianness : Big
Codec ID : A_AC3
Duration : 3h 1mn
Bit rate mode : Constant
Bit rate : 384 Kbps
Channel(s) : 6 channels
Channel positions : Front: L C R, Side: L R, LFE
Sampling rate : 48.0 KHz
Frame rate : 31.250 fps (1536 spf)
Compression mode : Lossy
Stream size : 499 MiB (3%)
Title : Дубляж (iTunes)
Language : Russian
Default : Yes
Forced : No

Audio #2
ID : 3
Format : AC-3
Format/Info : Audio Coding 3
Mode extension : CM (complete main)
Format settings, Endianness : Big
Codec ID : A_AC3
Duration : 3h 1mn
Bit rate mode : Constant
Bit rate : 640 Kbps
Channel(s) : 6 channels
Channel positions : Front: L C R, Side: L R, LFE
Sampling rate : 48.0 KHz
Frame rate : 31.250 fps (1536 spf)
Compression mode : Lossy
Stream size : 831 MiB (5%)
Title : Дубляж
Language : Ukrainian
Default : No
Forced : No

Audio #3
ID : 4
Format : AC-3
Format/Info : Audio Coding 3
Mode extension : CM (complete main)
Format settings, Endianness : Big
Codec ID : A_AC3
Duration : 3h 1mn
Bit rate mode : Constant
Bit rate : 640 Kbps
Channel(s) : 6 channels
Channel positions : Front: L C R, Side: L R, LFE
Sampling rate : 48.0 KHz
Frame rate : 31.250 fps (1536 spf)
Compression mode : Lossy
Stream size : 831 MiB (5%)
Title : Original (BD 3D Eur)
Language : English
Default : No
Forced : No

Text #1
ID : 5
Format : UTF-8
Codec ID : S_TEXT/UTF8
Codec ID/Info : UTF-8 Plain Text
Title : Форсированные (вер. Ash61)
Language : Russian
Default : Yes
Forced : No

Text #2
ID : 6
Format : UTF-8
Codec ID : S_TEXT/UTF8
Codec ID/Info : UTF-8 Plain Text
Title : SDH (iTunes)
Language : Russian
Default : No
Forced : No

Text #3
ID : 7
Format : UTF-8
Codec ID : S_TEXT/UTF8
Codec ID/Info : UTF-8 Plain Text
Title : Форсированные (вер. Ash61)
Language : Ukrainian
Default : No
Forced : No

Text #4
ID : 8
Format : UTF-8
Codec ID : S_TEXT/UTF8
Codec ID/Info : UTF-8 Plain Text
Title : Forced (BD 3D Eur)
Language : English
Default : No
Forced : No

Text #5
ID : 9
Format : UTF-8
Codec ID : S_TEXT/UTF8
Codec ID/Info : UTF-8 Plain Text
Title : Full
Language : English
Default : No
Forced : No

Text #6
ID : 10
Format : UTF-8
Codec ID : S_TEXT/UTF8
Codec ID/Info : UTF-8 Plain Text
Title : SDH
Language : English
Default : No
Forced : No

Menu
00:00:00.000 : : 1. One Last Surprise
00:08:05.902 : : 2. "To the Garden"
00:20:01.700 : : 3. Five Years Later
00:26:15.282 : : 4. "A Time Heist"
00:36:57.173 : : 5. "Time Travel Do-Over"
00:43:20.598 : : 6. "I Fixed It"
00:48:44.171 : : 7. Assembling the Avengers
00:57:36.745 : : 8. "Get the Stones, Get Them Back"
01:07:12.612 : : 9. Rogue Transmission
01:16:02.516 : : 10. New York, 2012
01:26:25.430 : : 11. Asgard, 2013
01:32:20.118 : : 12. Morag, 2014
01:38:55.805 : : 13. New Jersey, 1970
01:48:12.361 : : 14. Vormir, 2014
01:57:26.915 : : 15. "I Was Made for This"
02:05:00.243 : : 16. Thanos' Return
02:15:06.432 : : 17. Avengers Assemble
02:25:50.450 : : 18. One of the 14,000,605
02:34:37.935 : : 19. "Part of the Journey Is the End"
02:43:03.899 : : 20. "Clip All the Branches"
02:49:05.344 : : 21. End Credits




Скачать Мстители: Финал 3Д через торрент https://c.radikal.ru/c07/1908/17/e09296ecff2d.png Скачать, смотреть онлайн Мстители: Финал 3Д бесплантно в хорошем качестве Описание: Оставшиеся в живых члены команды Мстителей и их союзники должны разработать новый план, который поможет противостоять ... 10 10 11
Торрент: Зарегистрирован [2019-08-23 16:11] · скачан: 330 раз
Статус: √ проверено
Размер: 17.3 GB
Как cкачать? Как скачать Мстители: Финал 3Д через торрент | UTorrent

% Раздел Тема Автор DL S | L
3D Фильмы [ 17.73 GB ] Мстители: Финал в 3Д / Avengers: Endgame 3D | iTunes | 1080p serega768 Скачать
1 | 0

28-11-2019 20:33  


Отключить вcю реклaмy на сайте, в т.ч. и в плеере онлайн просмотра!

23-08-2019 17:00 Мстители: Финал 3Д Скачать торрент  

Аудио#1: Русский / AC3 / 48 KHz / 5.1 ch / 384 Kbps (Дубляж - iTunes)
Аудио#2: Украинский / AC3 / 48 KHz / 5.1 ch / 640 Kbps (Дубляж)
В РФ проблемы со мстителями что-ли? Где качество то...



    Дорогой пользователь! Огромная просьба, поблагодарите релизера, оцените раздачу и оставьте свои комментарий, если Вы скачали Мстители: Финал 3Д через торрент бесплатно!!
    Комментировать посты могут только пользователи прошедшие не сложную регистрацию
    Показать сообщения:    


    Мстители: Финал 3Д через торрент
    Скачать бесплатно Мстители: Финал 3Д
    Мстители: Финал 3Д скачать торрент
    Мстители: Финал 3Д смотреть онлайн
    Cкачать фильм Мстители: Финал 3Д бесплатно
    Мстители: Финал 3Д скачать торрент в хорошем качестве
    Мстители: Финал 3Д смотреть онлайн бесплатно в хорошем качестве
    Вы не можете начинать темы
    Вы не можете отвечать на сообщения
    Вы не можете редактировать свои сообщения
    Вы не можете удалять свои сообщения
    Вы не можете голосовать в опросах
    Вы не можете прикреплять файлы к сообщениям
    Вы можете скачивать файлы
    Мстители: Финал 3Д / Avengers: Endgame 3D [2019, фантастика, фэнтези, боевик, приключения, BDRip 1080p] [Half OverUnder] Дубляж [iTunes] смотреть онлайн, скачать торрент picoco.icu