MEGA SALE -50% FORZA HORIZON 4 ULTIMATE+ВСЕ DLC+ОНЛАЙН всего за 599р. 299 руб. (супер цена). Внимание количество ограничено!!!

iTunes

1+1

iTunes

мы

iTunes

1

iTunes

Чернобыль

iTunes

Ральф против интернета

Лицензия

ПШазам

Лицензия

Игра престолов

Лицензия

30
pack

ВАЖНО

!!Акция!!

Alien_RageХит недели

RePack

Resident Evil 21

ИГРА 18+

pack

RePack

Metro:Exodus

!!Акция!!

Alien_Rage

RePack

fifa19

RePack

Assassins Creed: Odyssey

RePack

NEED FOR SPEED™ PAYBACK

3 сезон

9 сезон

Бесстыжие 9 сезон

Все сериалы

все сериалы на PB.wtf

RePack

FAR CRY 5
Ребята, катастрофически не хватает 7730р. для оплаты серверов за АВГУСТ (всвязи с блокировками трафик упал в 3 раза), 1-2р., выручайте.
  

Становясь богом в центральной Флориде / On becoming a god in central Florida / Сезон: 1 / Серии: 1-4 из 9 (Чарли МакДауэлл, Триша Брок, Родмен Флендер) [2019, Комедия, WEB-DL 1080p] MVO [Jaskier] pb.wtf

Становясь богом в центральной Флориде через торрент pb.wtf

Размер: 17.21 GB | Добавлен: 5 д. назад | Торрент скачан:2 раза
Скачать  

23-08-2019 18:44 Становясь богом в центральной Флориде Скачать торрент  

Становясь богом в центральной Флориде / On becoming a god in central Florida
Год выпуска: 2019
Страна: США
Жанр: Комедия
Продолжительность: ~ 00:45:00
Перевод: Профессиональный (многоголосый закадровый) | Jaskier
Субтитры: английские

Режиссёр: Чарли МакДауэлл, Триша Брок, Родмен Флендер

В ролях: Кирстен Данст, Теодор Пеллерен, Мэл Родригез, Бет Дитто, Тед Левайн, Усман Элли, Эрик Аллан Крамер, Купер Джек Рубин, Александр Скарсгард, Мэри Стинберген и др

Описание: История расскажет о культе свободного предпринимательства и неутомимом стремлении одной женщины осуществить «американскую мечту». Оставшаяся без гроша в кармане и недавно овдовевшая работница аквапарка Кристал Джилл путём обмана и жульничества движется к вершине финансовой пирамиды «Основатели американской торговли», невзирая на то что этот многомиллиардный бизнес однажды уже разрушил её жизнь.

rating

Качество: WEB-DL 1080p
Формат: MKV

Видео: 1920x1080 (16:9) | X264 | ~11800 kbps | 23.976 fps
Аудио 1: AC3, 48,0 КГц, 6 ch, 384 kbps - [RUS]
Аудио 2: AC3, 48,0 КГц, 6 ch, 384 kbps - [ENG]


Реклама: отсутствует
Переведено и озвучено: студией Jaskier
Общее
Уникальный идентификатор                 : 196417301212176817240687022361915010328 (0x93C498A0909CF705BC058DE13511AD18)
Полное имя                               : G:\Загрузки\On.Becoming.a.God.in.Central.Florida.S01E01.1080p.WEB-DL.DD5.1.H.264-Jaskier.mkv
Формат                                   : Matroska
Версия формата                           : Version 2
Размер файла                             : 3,98 Гбайт
Продолжительность                        : 44 м. 21 с.
Общий поток                              : 12,8 Мбит/сек
Дата кодирования                         : UTC 2019-08-23 15:54:50
Программа кодирования                    : mkvmerge v7.8.0 ('River Man') 32bit built on Apr  3 2015 12:11:22
Библиотека кодирования                   : libebml v1.3.1 + libmatroska v1.4.2

Видео
Идентификатор                            : 1
Формат                                   : AVC
Формат/Информация                        : Advanced Video Codec
Профиль формата                          : High@L4
Настройки формата                        : CABAC / 4 Ref Frames
Параметр CABAC формата                   : Да
Параметр RefFrames формата               : 4 кадра
Идентификатор кодека                     : V_MPEG4/ISO/AVC
Продолжительность                        : 44 м. 21 с.
Битрейт                                  : 11,8 Мбит/сек
Ширина                                   : 1920 пикселей
Высота                                   : 1080 пикселей
Соотношение сторон                       : 16:9
Режим частоты кадров                     : Постоянный
Частота кадров                           : 23,976 (24000/1001) кадра/сек
Цветовое пространство                    : YUV
Субдискретизация насыщенности            : 4:2:0
Битовая глубина                          : 8 бит
Тип развёртки                            : Прогрессивная
Бит/(Пиксели*Кадры)                      : 0.238
Размер потока                            : 3,66 Гбайт (92%)
Язык                                     : English
Default                                  : Да
Forced                                   : Нет
Цветовой диапазон                        : Limited
Основные цвета                           : BT.709
Характеристики трансфера                 : BT.709
Коэффициенты матрицы                     : BT.709

Аудио #1
Идентификатор                            : 2
Формат                                   : AC-3
Формат/Информация                        : Audio Coding 3
Коммерческое название                    : Dolby Digital
Идентификатор кодека                     : A_AC3
Продолжительность                        : 44 м. 21 с.
Вид битрейта                             : Постоянный
Битрейт                                  : 384 Кбит/сек
Каналы                                   : 6 каналов
Channel layout                           : L R C LFE Ls Rs
Частота                                  : 48,0 КГц
Частота кадров                           : 31,250 кадров/сек (1536 SPF)
Битовая глубина                          : 16 бит
Метод сжатия                             : С потерями
Размер потока                            : 122 Мбайт (3%)
Заголовок                                : Jaskier
Язык                                     : Russian
ServiceKind/String                       : Complete Main
Default                                  : Да
Forced                                   : Нет

Аудио #2
Идентификатор                            : 3
Формат                                   : AC-3
Формат/Информация                        : Audio Coding 3
Коммерческое название                    : Dolby Digital
Идентификатор кодека                     : A_AC3
Продолжительность                        : 44 м. 21 с.
Вид битрейта                             : Постоянный
Битрейт                                  : 384 Кбит/сек
Каналы                                   : 6 каналов
Channel layout                           : L R C LFE Ls Rs
Частота                                  : 48,0 КГц
Частота кадров                           : 31,250 кадров/сек (1536 SPF)
Битовая глубина                          : 16 бит
Метод сжатия                             : С потерями
Размер потока                            : 122 Мбайт (3%)
Язык                                     : English
ServiceKind/String                       : Complete Main
Default                                  : Нет
Forced                                   : Нет

Текст
Идентификатор                            : 4
Формат                                   : UTF-8
Идентификатор кодека                     : S_TEXT/UTF8
Идентификатор кодека/Информация          : UTF-8 Plain Text
Язык                                     : English
Default                                  : Нет
Forced                                   : Нет
скриншот  скриншот  скриншот  
Когда раздача ведётся путём добавления новых серий, при каждом добавлении создётся новый торрент. Чтобы начать докачку новой серии, пользователям необходимо сделать следующее:
(1) остановить скачивание,
(2) удалить старый торрент у себя из клиента (старые серии удалять не надо),
(3) скачать новый торрент и запустить его у себя в клиенте вместо старого, при этом указать клиенту путь в старую папку, куда и должно происходить скачивание новых серий.
Ваш клиент при этом должен произвести хеширование (проверку) старой папки (если не производит сам - помогите ему сделать это), и будет докачивать только те серии, которых у вас ещё нет. Старые серии при этом не удаляются, а продолжают раздаваться!
Eсли вы уже удалили старые серии, то предотвратить повторную закачку старых серий можно, отжав галочку в соответсвующих местах при запуске нового торрента. По возможности, желательно не удалять старые серии как можно дольше, чтобы релизёр не столько продолжал раздавать старые серии, а смог сконцентрироваться на новых.
pb.wtf



Скачать Становясь богом в центральной Флориде через торрент https://img15.lostpic.net/2019/08/23/e4a03c07bec0268f09f68afc4d03d0a2.png Скачать фильм Становясь богом в центральной Флориде через торрент бесплантно в хорошем качестве Описание: История расскажет о культе свободного предпринимательства и неутомимом стремлении одной женщины осуществить «американскую мечту». ... 10 10 2
Торрент: Зарегистрирован [2019-09-11 14:01] · скачан: 2 раз
Статус: √ проверено
Размер: 17.21 GB
Как cкачать? Как скачать Становясь богом в центральной Флориде через торрент | qTorrent

% Раздел Тема Автор DL S | L
Зарубежные сериалы [ 17.45 GB ] Становясь богом в центральной Флориде / On becoming a god in central Florida / Сезон: 1 / Серии: 1-4 из 9 [2019 WEB-DL 1080p] MVO [TVShows] bober100 Скачать
1 | 0
Зарубежные сериалы [ 2.16 GB ] Становясь богом в центральной Флориде / On becoming a god in central Florida / Сезон: 1 / Серии: 1-4 из 9 [2019 WEB-DLRip] MVO [Jaskier] bober100 Скачать
1 | 0


>> Регистрируемся здесь <<






Отзывы и комментарии о схеме читаем и пишем здесь: ---> Отзывы и комментарии о схеме

Новые благодарочки в телеграм довольных пользователей:
скриншот   скриншот   скриншот   скриншот   скриншот
    Дорогой пользователь! Огромная просьба, поблагодарите релизера, оцените раздачу и оставьте свои комментарий, если Вы скачали Становясь богом в центральной Флориде через торрент бесплатно! Внесите свою лепту в развитие PiratBit!
    Комментировать посты могут только пользователи прошедшие не сложную регистрацию
    Показать сообщения:    

    Становясь богом в центральной Флориде через торрент
    Скачать бесплатно Становясь богом в центральной Флориде
    Становясь богом в центральной Флориде скачать торрент
    Становясь богом в центральной Флориде смотреть онлайн
    Cкачать фильм Становясь богом в центральной Флориде бесплатно
    Становясь богом в центральной Флориде скачать торрент в хорошем качестве
    Становясь богом в центральной Флориде смотреть онлайн бесплатно в хорошем качестве


    Вы не можете начинать темы
    Вы не можете отвечать на сообщения
    Вы не можете редактировать свои сообщения
    Вы не можете удалять свои сообщения
    Вы не можете голосовать в опросах
    Вы не можете прикреплять файлы к сообщениям
    Вы можете скачивать файлы