MEGA SALE -50% FORZA HORIZON 4 ULTIMATE+ВСЕ DLC+ОНЛАЙН всего за 599р. 299 руб. (супер цена). Внимание количество ограничено!!!

iTunes

1+1

iTunes

мы

iTunes

1

iTunes

Чернобыль

iTunes

Ральф против интернета

Лицензия

ПШазам

Лицензия

Игра престолов

Лицензия

30
pack

ВАЖНО

!!Акция!!

Alien_RageХит недели

RePack

Resident Evil 21

ИГРА 18+

pack

RePack

Metro:Exodus

!!Акция!!

Alien_Rage

RePack

fifa19

RePack

Assassins Creed: Odyssey

RePack

NEED FOR SPEED™ PAYBACK

3 сезон

9 сезон

Бесстыжие 9 сезон

Все сериалы

все сериалы на PB.wtf

RePack

FAR CRY 5
Ребята, катастрофически не хватает 7730р. для оплаты серверов за АВГУСТ (всвязи с блокировками трафик упал в 3 раза), 1-2р., выручайте.
  

Становясь богом в центральной Флориде / On becoming a god in central Florida / Сезон: 1 / Серии: 1-4 из 9 (Чарли МакДауэлл, Триша Брок, Родмен Флендер) [2019, Комедия, WEB-DLRip] MVO [Jaskier] pb.wtf

Становясь богом в центральной Флориде через торрент pb.wtf

Размер: 2.16 GB | Добавлен: 5 д. назад | Торрент скачан:0 раз
Скачать  

23-08-2019 18:49 Становясь богом в центральной Флориде Скачать торрент  

Становясь богом в центральной Флориде / On becoming a god in central Florida Год выпуска: 2019
Страна: США
Жанр: Комедия
Продолжительность: ~ 00:45:00
Перевод: Профессиональный (многоголосый закадровый) | Jaskier
Субтитры: отсутствуют

Режиссёр: Чарли МакДауэлл, Триша Брок, Родмен Флендер

В ролях: Кирстен Данст, Теодор Пеллерен, Мэл Родригез, Бет Дитто, Тед Левайн, Усман Элли, Эрик Аллан Крамер, Купер Джек Рубин, Александр Скарсгард, Мэри Стинберген и др

Описание: История расскажет о культе свободного предпринимательства и неутомимом стремлении одной женщины осуществить «американскую мечту». Оставшаяся без гроша в кармане и недавно овдовевшая работница аквапарка Кристал Джилл путём обмана и жульничества движется к вершине финансовой пирамиды «Основатели американской торговли», невзирая на то что этот многомиллиардный бизнес однажды уже разрушил её жизнь.

rating

Качество: WEB-DLRip
Формат: AVI

Видео: XviD, ~ 1400 kbps, 720x400 (16:9), 23.976 fps
Аудио 1: MP3, 48,0 КГц, 2 ch, 128 kbps - Rus
Аудио 2: MP3, 48,0 КГц, 2 ch, 128 kbps - Eng


Реклама: отсутствует
Переведено и озвучено: студией Jaskier
Общее
Полное имя                               : H:\JASKiER\On Becoming a God in Central Florida. Season 1 (WEB-DLRip l 400p l Jaskier)\On.Becoming.a.God.in.Central.Florida.S01E01.WEB-DLRip.Rus.Eng.Jaskier.avi
Формат                                   : AVI
Формат/Информация                        : Audio Video Interleave
Размер файла                             : 530 Мбайт
Продолжительность                        : 44 м. 20 с.
Общий поток                              : 1670 Кбит/сек
Программа кодирования                    : VirtualDubMod 1.5.10.3 | www.virtualdub-fr.org || (build 2550/release)
Библиотека кодирования                   : VirtualDubMod build 2550/release

Видео
Идентификатор                            : 0
Формат                                   : MPEG-4 Visual
Профиль формата                          : Advanced Simple@L5
Настройки формата                        : BVOP1 / Custom Matrix
Параметр BVOP формата                    : 1
Параметр QPel формата                    : Нет
Параметр GMC формата                     : Без точки перехода
Параметр матрицы формата                 : Выборочная
Идентификатор кодека                     : XVID
Идентификатор кодека/Подсказка           : XviD
Продолжительность                        : 44 м. 20 с.
Битрейт                                  : 1400 Кбит/сек
Ширина                                   : 720 пикселей
Высота                                   : 400 пикселей
Соотношение сторон                       : 16:9
Частота кадров                           : 23,976 (24000/1001) кадра/сек
Цветовое пространство                    : YUV
Субдискретизация насыщенности            : 4:2:0
Битовая глубина                          : 8 бит
Тип развёртки                            : Прогрессивная
Метод сжатия                             : С потерями
Бит/(Пиксели*Кадры)                      : 0.203
Размер потока                            : 444 Мбайт (84%)
Библиотека кодирования                   : XviD 73

Аудио #1
Идентификатор                            : 1
Формат                                   : MPEG Audio
Версия формата                           : Version 1
Профиль формата                          : Layer 3
Настройки формата                        : Joint stereo / MS Stereo
Идентификатор кодека                     : 55
Идентификатор кодека/Подсказка           : MP3
Продолжительность                        : 44 м. 20 с.
Вид битрейта                             : Постоянный
Битрейт                                  : 128 Кбит/сек
Каналы                                   : 2 канала
Частота                                  : 48,0 КГц
Метод сжатия                             : С потерями
Размер потока                            : 40,6 Мбайт (8%)
Выравнивание                             : Соединение по промежуткам
Продолжительность промежутка             : 42  мс. (1,00 видеокадр)
Время предзагрузки промежутка            : 504  мс.

Аудио #2
Идентификатор                            : 2
Формат                                   : MPEG Audio
Версия формата                           : Version 1
Профиль формата                          : Layer 3
Настройки формата                        : Joint stereo / MS Stereo
Идентификатор кодека                     : 55
Идентификатор кодека/Подсказка           : MP3
Продолжительность                        : 44 м. 20 с.
Вид битрейта                             : Постоянный
Битрейт                                  : 128 Кбит/сек
Каналы                                   : 2 канала
Частота                                  : 48,0 КГц
Метод сжатия                             : С потерями
Размер потока                            : 40,6 Мбайт (8%)
Выравнивание                             : Соединение по промежуткам
Продолжительность промежутка             : 42  мс. (1,00 видеокадр)
Время предзагрузки промежутка            : 504  мс.
скриншот  скриншот  скриншот  
Когда раздача ведётся путём добавления новых серий, при каждом добавлении создётся новый торрент. Чтобы начать докачку новой серии, пользователям необходимо сделать следующее:
(1) остановить скачивание,
(2) удалить старый торрент у себя из клиента (старые серии удалять не надо),
(3) скачать новый торрент и запустить его у себя в клиенте вместо старого, при этом указать клиенту путь в старую папку, куда и должно происходить скачивание новых серий.
Ваш клиент при этом должен произвести хеширование (проверку) старой папки (если не производит сам - помогите ему сделать это), и будет докачивать только те серии, которых у вас ещё нет. Старые серии при этом не удаляются, а продолжают раздаваться!
Eсли вы уже удалили старые серии, то предотвратить повторную закачку старых серий можно, отжав галочку в соответсвующих местах при запуске нового торрента. По возможности, желательно не удалять старые серии как можно дольше, чтобы релизёр не столько продолжал раздавать старые серии, а смог сконцентрироваться на новых.
pb.wtf



Скачать Становясь богом в центральной Флориде через торрент https://img15.lostpic.net/2019/08/23/e4a03c07bec0268f09f68afc4d03d0a2.png Скачать фильм Становясь богом в центральной Флориде через торрент бесплантно в хорошем качестве Описание: История расскажет о культе свободного предпринимательства и неутомимом стремлении одной женщины осуществить «американскую мечту». ... 10 10 2
Торрент: Зарегистрирован [2019-09-11 14:00] · скачан: 0 раз
Статус: √ проверено
Размер: 2.16 GB
Как cкачать? Как скачать Становясь богом в центральной Флориде через торрент | qTorrent

% Раздел Тема Автор DL S | L
Зарубежные сериалы [ 17.45 GB ] Становясь богом в центральной Флориде / On becoming a god in central Florida / Сезон: 1 / Серии: 1-4 из 9 [2019 WEB-DL 1080p] MVO [TVShows] bober100 Скачать
1 | 0
Зарубежные сериалы [ 17.21 GB ] Становясь богом в центральной Флориде / On becoming a god in central Florida / Сезон: 1 / Серии: 1-4 из 9 [2019 WEB-DL 1080p] MVO [Jaskier] bober100 Скачать
1 | 0


>> Регистрируемся здесь <<






Отзывы и комментарии о схеме читаем и пишем здесь: ---> Отзывы и комментарии о схеме

Новые благодарочки в телеграм довольных пользователей:
скриншот   скриншот   скриншот   скриншот   скриншот
    Дорогой пользователь! Огромная просьба, поблагодарите релизера, оцените раздачу и оставьте свои комментарий, если Вы скачали Становясь богом в центральной Флориде через торрент бесплатно! Внесите свою лепту в развитие PiratBit!
    Комментировать посты могут только пользователи прошедшие не сложную регистрацию
    Показать сообщения:    

    Становясь богом в центральной Флориде через торрент
    Скачать бесплатно Становясь богом в центральной Флориде
    Становясь богом в центральной Флориде скачать торрент
    Становясь богом в центральной Флориде смотреть онлайн
    Cкачать фильм Становясь богом в центральной Флориде бесплатно
    Становясь богом в центральной Флориде скачать торрент в хорошем качестве
    Становясь богом в центральной Флориде смотреть онлайн бесплатно в хорошем качестве


    Вы не можете начинать темы
    Вы не можете отвечать на сообщения
    Вы не можете редактировать свои сообщения
    Вы не можете удалять свои сообщения
    Вы не можете голосовать в опросах
    Вы не можете прикреплять файлы к сообщениям
    Вы можете скачивать файлы