Ссылка на приватное зеркало нашего сайта всего за 1$. Внимание количество ограничено!!!

2 сезон

iTunes

1 сезон

1

2 сезон

2 сезон

iTunes

1 сезон

RePack

30

Новинка

ВАЖНО

ИГРА 18+

pack

RePack

MK11
pack

Забери бонус

RePack

jed

!!Акция!!

Alien_Rage

RePack

fifa19

RePack

Assassins Creed: Odyssey

RePack

NEED FOR SPEED™ PAYBACK

4 сезон

9 сезон

Бесстыжие 9 сезон

Все сериалы

все сериалы на PB.wtf

RePack

FAR CRY 5
  

Беглецы / Runaways / Сезон: 2 / Серии: 1-13 из 13 (Венди Станцлер, Стивен Серджик, Скотт Питерс, Рэмси Никелл) [2018, фантастика, боевик, драма, WEB-DL 1080p] MVO [Lostfilm] pb.wtf

Беглецы через торрент pb.wtf

Размер: 31.62 GB | Добавлен: 1 год 3 мес. назад | Торрент скачан:14 раз
Скачать  

24-08-2019 01:43 Беглецы Скачать торрент  

Беглецы / Runaways Год выпуска: 2018
Страна: США
Жанр: фантастика, боевик, драма
Продолжительность: 01:00:00
Перевод: Профессиональный (многоголосый закадровый) | Lostfilm
Субтитры: Английские (SDH), Английские

Режиссёр: Венди Станцлер, Стивен Серджик, Скотт Питерс, Рэмси Никелл

В ролях: Аллегра Акоста (Молли Эрнандес), Вирджиниа Гарднер (Каролина Дин), Ариэла Барер (Гертруда Йоркс), Грегг Салкин (Чейз Стэйн), Кевин Уайзман (Дэйл Йоркс), Лирика Окано (Нико Минору), Рензи Фелиз (Алекс Уайлдер), Энни Вершинг (Лесли Дин), Бриттани Исибаси (Тина Минору), Бриджид Брэнно (Стэйси Йоркс)

Описание: Жизнь подростков полна сюрпризов: то собака съест твою домашку, то температура вдруг подскочит до небес, не позволив пойти в любимую школу, а бывает, что собственные друзья втягивают в ту еще заварушку. И ведь на помощь приходят не Чудо-женщина или Железный человек, а самые обычные родители. Они накормят вас вкусным завтраком, уложат спать и даже взобьют подушку. Но что делать, если твои родители и есть виновники заварушки?.. Компания Marvel совместно с онлайн-сервисом Hulu решила отойти от полюбившихся поклонникам стереотипов в экранизации "Беглецов" - нового супергеройского сериала о необычных подростках. Боссы студии собрали команду из опытных сценаристов и режиссеров, чтобы представить миру совершенно новые грани фантастического - с динозаврами, темными магами и опасными мафиози. Это история взросления юношей и девушек, постепенно встающих на путь отчаянного героизма, а не привычные сражения могущественных богов с зелеными великанами. Не зря же здешние ребята - самые настоящие беглецы, а не какие-нибудь воители. Но они точно найдут свое место в вашем списке обязательного к просмотру, потому что адаптацией занимался сам создатель комикса Брайан К. Вон, а в команду за кадром вошли такие знатоки своего дела, как режиссер "Сорвиголовы" и "Защитников" Питер Хор и Нина Лопес-Коррадо, работавшая и с DC во "Флэше", и с Marvel в "Агентах Щ.И.Т.".

Сюжет: Группа подростков беспечно наслаждается жизнью, пока в один момент не узнает, что их собственные родители возглавляют организацию "Прайд" - настоящую штаб-квартиру зла. Ребята быстро приходят к консенсусу, решив как можно скорее... делать ноги. Но было бы безумно скучно, будь они простыми подростками, верно? Каждый из них обнаруживает, что способен на нечто большее, чем отлынивать от школы или сбегать из дома. Герои не только получили от мам и пап невероятные способности, но и решили позаимствовать у своих семей некоторые технологии. Гертруда Йоркс (Ариэла Барер) извлекает пользу из умеющих путешествовать во времени родственников, подружившись с живым динозавром. Чейз Стэйн (Грегг Салкин) и Молли Хейз (Аллегра Акоста) вообще являются потомками безумных ученых и мутантов-телепатов. Но куда уж им до Каролины Дин (Вирджиниа Гарднер), чьи родители - инопланетные захватчики. Теперь ребятам предстоит выяснить, готовы ли они выступить против собственной семьи в сражении за счастливое будущее, или же кто-то из них пойдет против друзей и окажется по другую сторону баррикад.



Качество: WEB-DL 1080p (AMAZON)
Контейнер: MKV

Видео: H.264/AVC, 1920x1080p (1.78:1), 23.976 fps, ~7331 kbps, ~0.147 bit/pixel
Аудио №1: Русский E-AC3/DD+ 5.1, 48 kHz, 640 kbps
Аудио №2: Английский E-AC3/DD+ 5.1, 48 kHz, 640 kbps


Реклама: отсутствует

Работа со звуком itunestv@eniahd
01. Gimmie Shelter (2018-12-21) / Приюти меня (24.12.2018 21:49:10)
02. Radio On (2018-12-21) / Радио, включись (28.12.2018 21:46:25)
03. Double Zeros (2018-12-21) / Двойные зеро (31.12.2018 8:42:47)
04. Old School (2018-12-21) / Снова в школу (06.01.2019 19:56:24)
05. Rock Bottom (2018-12-21) / Дно (08.01.2019 11:46:00)
06. Bury Another (2018-12-21) / Новые жертвы (11.01.2019 20:48:40)
07. Last Rites (2018-12-21) / Последнее причастие (15.01.2019 19:40:21)
08. Past Life (2018-12-21) / Прошлая жизнь (18.01.2019 21:01:55)
09. Big Shot (2018-12-21) / Большая шишка (22.01.2019 18:14:50)
10. Hostile Takeover (2018-12-21) / Захват (25.01.2019 22:40:49)
11. Last Waltz (2018-12-21) / Последний вальс (30.01.2019 23:40:16)
12. Earth Angel (2018-12-21) / Земной ангел (01.02.2019 22:24:02)
13. Split Up (2018-12-21) / Разделенные (03.02.2019 16:23:58)
General
Unique ID                                : 310220855374291553709883826619876547201 (0xE9625D0C9FBEB1DEF7381A09FB5A9A81)
Complete name                            : Marvels.Runaways.S02E01.Gimmie.Shelter.1080p.AMZN.WEB-DL.H.264.RUS.LF.DDP5.1-EniaHD.mkv
Format                                   : Matroska
Format version                           : Version 4 / Version 2
File size                                : 2.98 GiB
Duration                                 : 49 min 32 s
Overall bit rate                         : 8 614 kb/s
Movie name                               : Marvels Runaways, Season 2 / Gimmie Shelter
Track name/Position                      : 1
Track name/Total                         : 13
Description                              : The kids take refuge on the streets after their parents have the police come after them. After Chase's Fistigons and the group's money is stolen, Alex goes back to Darius for cash but has to repay him with a favor. While chasing the Fistigon thief, the Runaways find a new hideout.
Released date                            : UTC 2018-12-21 17:00:00
Writing application                      : mkvmerge v30.1.0 ('Forever And More') 64-bit
Writing library                          : libebml v1.3.6 + libmatroska v1.4.9
Copyright                                : aXR1bmVzdHZAZW5pYWhk
Cover                                    : Yes
Attachments                              : small_cover.jpg / cover.jpg

Video
ID                                       : 1
Format                                   : AVC
Format/Info                              : Advanced Video Codec
Format profile                           : High@L4
Format settings                          : CABAC / 4 Ref Frames
Format settings, CABAC                   : Yes
Format settings, RefFrames               : 4 frames
Codec ID                                 : V_MPEG4/ISO/AVC
Duration                                 : 49 min 32 s
Bit rate                                 : 7 331 kb/s
Width                                    : 1 920 pixels
Height                                   : 1 080 pixels
Display aspect ratio                     : 16:9
Frame rate mode                          : Constant
Frame rate                               : 23.976 (24000/1001) FPS
Color space                              : YUV
Chroma subsampling                       : 4:2:0
Bit depth                                : 8 bits
Scan type                                : Progressive
Bits/(Pixel*Frame)                       : 0.147
Stream size                              : 2.54 GiB (85%)
Language                                 : English
Default                                  : Yes
Forced                                   : No
Color range                              : Limited
Color primaries                          : BT.709
Transfer characteristics                 : BT.709
Matrix coefficients                      : BT.709

Audio #1
ID                                       : 2
Format                                   : E-AC-3
Format/Info                              : Enhanced Audio Coding 3
Format settings, Endianness              : Big
Codec ID                                 : A_EAC3
Duration                                 : 49 min 32 s
Bit rate mode                            : Constant
Bit rate                                 : 640 kb/s
Channel(s)                               : 6 channels
Channel positions                        : Front: L C R, Side: L R, LFE
Sampling rate                            : 48.0 kHz
Frame rate                               : 187.500 FPS (256 SPF)
Compression mode                         : Lossy
Stream size                              : 227 MiB (7%)
Title                                    : E-AC3 5.1 @ 640 kbps - MVO, Lostfilm
Language                                 : Russian
Service kind                             : Complete Main
Default                                  : Yes
Forced                                   : No
Released date                            : UTC 2018-12-24 21:49:10

Audio #2
ID                                       : 3
Format                                   : E-AC-3
Format/Info                              : Enhanced Audio Coding 3
Format settings, Endianness              : Big
Codec ID                                 : A_EAC3
Duration                                 : 49 min 32 s
Bit rate mode                            : Constant
Bit rate                                 : 640 kb/s
Channel(s)                               : 6 channels
Channel positions                        : Front: L C R, Side: L R, LFE
Sampling rate                            : 48.0 kHz
Frame rate                               : 187.500 FPS (256 SPF)
Compression mode                         : Lossy
Stream size                              : 227 MiB (7%)
Title                                    : E-AC3 5.1 @ 640 kbps - Original
Language                                 : English
Service kind                             : Complete Main
Default                                  : No
Forced                                   : No

Text #1
ID                                       : 4
Format                                   : UTF-8
Codec ID                                 : S_TEXT/UTF8
Codec ID/Info                            : UTF-8 Plain Text
Duration                                 : 48 min 27 s
Bit rate                                 : 86 b/s
Count of elements                        : 901
Stream size                              : 30.6 KiB (0%)
Title                                    : SDH
Language                                 : English
Default                                  : No
Forced                                   : No

Text #2
ID                                       : 5
Format                                   : UTF-8
Codec ID                                 : S_TEXT/UTF8
Codec ID/Info                            : UTF-8 Plain Text
Duration                                 : 48 min 16 s
Bit rate                                 : 80 b/s
Count of elements                        : 833
Stream size                              : 28.5 KiB (0%)
Language                                 : English
Default                                  : No
Forced                                   : No
pb.wtf



Скачать Беглецы через торрент https://i106.fastpic.ru/big/2019/0823/ad/934aa1755f874add5cbfcd6c1db543ad.jpg Скачать фильм Беглецы через торрент бесплантно в хорошем качестве Описание: Жизнь подростков полна сюрпризов: то собака съест твою домашку, то температура вдруг подскочит до небес, не позволив пойти в ... 10 10 3
Торрент: Зарегистрирован [2019-08-24 01:43] · скачан: 14 раз
Статус: √ проверено
Размер: 31.62 GB
Как cкачать? Как скачать Беглецы через торрент | qTorrent

% Раздел Тема Автор DL S | L
Зарубежные сериалы [ 29.41 GB ] Беглецы / Runaways / Сезон: 2 / Серии: 1-13 из 13 [2018 WEB-DL 1080p] MVO [Jaskier] bober100 Скачать
1 | 0
Зарубежные сериалы [ 11.53 GB ] Беглецы / Runaways / Сезон: 2 / Серии: 1-13 из 13 [2018 WEB-DL 720p] MVO [Jaskier] bober100 Скачать
1 | 0
Зарубежные сериалы [ 7.33 GB ] Беглецы / Runaways / Сезон: 2 / Серии: 1-13 из 13 [2018 WEB-DLRip] MVO [Jaskier] bober100 Скачать
1 | 0

28-11-2019 20:33  

Отключить всю рекламу на сайте

    Дорогой пользователь! Огромная просьба, поблагодарите релизера, оцените раздачу и оставьте свои комментарий, если Вы скачали Беглецы через торрент бесплатно! Внесите свою лепту в развитие PiratBit!
    Комментировать посты могут только пользователи прошедшие не сложную регистрацию
    Показать сообщения:    

    Беглецы через торрент
    Скачать бесплатно Беглецы
    Беглецы скачать торрент
    Беглецы смотреть онлайн
    Cкачать фильм Беглецы бесплатно
    Беглецы скачать торрент в хорошем качестве
    Беглецы смотреть онлайн бесплатно в хорошем качестве


    Вы не можете начинать темы
    Вы не можете отвечать на сообщения
    Вы не можете редактировать свои сообщения
    Вы не можете удалять свои сообщения
    Вы не можете голосовать в опросах
    Вы не можете прикреплять файлы к сообщениям
    Вы можете скачивать файлы