Ссылка на приватное зеркало нашего сайта всего за 1$. Внимание количество ограничено!!!

2 сезон

iTunes

1 сезон

1

iTunes

iTunes

iTunes

1 сезон

RePack

30

ИГРА 18+

pack

ВАЖНО

!!Акция!!

Alien_RageХит недели

RePack

MK11
pack

Забери бонус

RePack

jed

!!Акция!!

Alien_Rage

RePack

fifa19

RePack

Assassins Creed: Odyssey

RePack

NEED FOR SPEED™ PAYBACK

4 сезон

9 сезон

Бесстыжие 9 сезон

Все сериалы

все сериалы на PB.wtf

RePack

FAR CRY 5
  

Месть снежной королевы / The Snow Queen's Revenge (Мартин Гейтс / Martin Gates) [1996, мультфильм, WEBRip-AVC] [Dub] (NetFlix) pb.wtf

Месть снежной королевы через торрент pb.wtf

Размер: 1.94 GB | Добавлен: 1 год 2 мес. назад | Торрент скачан:13 раз
Скачать  

24-08-2019 14:24 Месть снежной королевы Скачать торрент  

Месть снежной королевы / The Snow Queen's Revenge

Год выпуска: 1996
Страна: Великобритания
Жанр: мультфильм
Продолжительность: 01:03:53
Перевод: Профессиональный (дублированный) Netflix
Режиссёр: Мартин Гейтс / Martin Gates

Описание: Снежная королева мечтает отомстить. Чтобы, наконец, избавиться от злой волшебницы, девочка опять отправляется в царство холода. В пути ей помогают огромная птица, маленький воробей и сказочный талисман, а в конце даже сама природа восстает против ледяной колдуньи…
Семпл rating

Качество: WEBRip-AVC
Формат: MKV
Видео: AVC, 960x540 (4:3), 25,000 fps, 4082 Kbps
Аудио 1: E-AC3, 48,0 kHz, 2 ch, 128 kbps | Дубляж
Аудио 2: E-AC3, 48,0 kHz, 2 ch, 128 kbps | English
Субтитры: русские, английские
Общее
Полное имя : The.Snow.Queen's.Revenge.1996.WEBRip-AVC.-Kyle.mkv
Формат : Matroska
Версия формата : Version 4
Размер файла : 1,94 Гбайт
Продолжительность : 1 ч. 3 м.
Общий поток : 4340 Кбит/сек
Дата кодирования : UTC 2019-08-24 13:53:20
Программа кодирования : mkvmerge v36.0.0 ('Is That Jazz?') 64-bit
Библиотека кодирования : libebml v1.3.9 + libmatroska v1.5.2

Видео
Идентификатор : 1
Формат : AVC
Формат/Информация : Advanced Video Codec
Профиль формата : High@L3.1
Настройки формата : CABAC / 3 Ref Frames
Параметр CABAC формата : Да
Параметр RefFrames формата : 3 кадра
Идентификатор кодека : V_MPEG4/ISO/AVC
Продолжительность : 1 ч. 3 м.
Битрейт : 4082 Кбит/сек
Ширина : 960 пикселей
Высота : 540 пикселей
Соотношение сторон : 16:9
Режим частоты кадров : Постоянный
Частота кадров : 25,000 кадров/сек
Цветовое пространство : YUV
Субдискретизация насыщенности : 4:2:0
Битовая глубина : 8 бит
Тип развёртки : Прогрессивная
Бит/(Пиксели*Кадры) : 0.315
Размер потока : 1,82 Гбайт (94%)
Заголовок : Russian
Язык : Russian
Default : Да
Forced : Нет

Аудио #1
Идентификатор : 2
Формат : E-AC-3
Формат/Информация : Enhanced AC-3
Коммерческое название : Dolby Digital Plus
Идентификатор кодека : A_EAC3
Продолжительность : 1 ч. 3 м.
Вид битрейта : Постоянный
Битрейт : 128 Кбит/сек
Каналы : 2 канала
ChannelLayout : L R
Частота : 48,0 КГц
Частота кадров : 31,250 кадров/сек (1536 SPF)
Метод сжатия : С потерями
Размер потока : 58,5 Мбайт (3%)
Заголовок : Russian
Язык : Russian
ServiceKind/String : Complete Main
Default : Да
Forced : Нет

Аудио #2
Идентификатор : 3
Формат : E-AC-3
Формат/Информация : Enhanced AC-3
Коммерческое название : Dolby Digital Plus
Идентификатор кодека : A_EAC3
Продолжительность : 1 ч. 3 м.
Вид битрейта : Постоянный
Битрейт : 128 Кбит/сек
Каналы : 2 канала
ChannelLayout : L R
Частота : 48,0 КГц
Частота кадров : 31,250 кадров/сек (1536 SPF)
Метод сжатия : С потерями
Размер потока : 58,5 Мбайт (3%)
Заголовок : English
Язык : English
ServiceKind/String : Complete Main
Default : Нет
Forced : Нет

Текст #1
Идентификатор : 4
Формат : UTF-8
Идентификатор кодека : S_TEXT/UTF8
Идентификатор кодека/Информация : UTF-8 Plain Text
Продолжительность : 1 ч. 3 м.
Битрейт : 108 бит/сек
ElementCount : 1042
Размер потока : 50,1 Кбайт (0%)
Заголовок : Russian
Язык : Russian
Default : Нет
Forced : Нет

Текст #2
Идентификатор : 5
Формат : UTF-8
Идентификатор кодека : S_TEXT/UTF8
Идентификатор кодека/Информация : UTF-8 Plain Text
Продолжительность : 1 ч. 3 м.
Битрейт : 100 бит/сек
ElementCount : 1270
Размер потока : 47,0 Кбайт (0%)
Заголовок : English
Язык : English
Default : Нет
Forced : Нет
скриншот  скриншот  скриншот  
pb.wtf



Скачать Месть снежной королевы через торрент https://i89.fastpic.ru/big/2017/0419/22/6688761ca244191b9e1a4ad00aca4622.png Скачать фильм Месть снежной королевы через торрент бесплантно в хорошем качестве Описание: Снежная королева мечтает отомстить. Чтобы, наконец, избавиться от злой волшебницы, девочка опять отправляется в царство холода. В ... 10 10 2
Торрент: Зарегистрирован [2019-08-24 14:24] · скачан: 13 раз
Статус: √ проверено
Размер: 1.94 GB
Как cкачать? Как скачать Месть снежной королевы через торрент | qTorrent

28-11-2019 20:33  

Отключить всю рекламу на сайте

    Дорогой пользователь! Огромная просьба, поблагодарите релизера, оцените раздачу и оставьте свои комментарий, если Вы скачали Месть снежной королевы через торрент бесплатно! Внесите свою лепту в развитие PiratBit!
    Комментировать посты могут только пользователи прошедшие не сложную регистрацию
    Показать сообщения:    

    Месть снежной королевы через торрент
    Скачать бесплатно Месть снежной королевы
    Месть снежной королевы скачать торрент
    Месть снежной королевы смотреть онлайн
    Cкачать фильм Месть снежной королевы бесплатно
    Месть снежной королевы скачать торрент в хорошем качестве
    Месть снежной королевы смотреть онлайн бесплатно в хорошем качестве


    Вы не можете начинать темы
    Вы не можете отвечать на сообщения
    Вы не можете редактировать свои сообщения
    Вы не можете удалять свои сообщения
    Вы не можете голосовать в опросах
    Вы не можете прикреплять файлы к сообщениям
    Вы можете скачивать файлы