Всегда рабочее зеркало без VPN и Proxy просто перед .vidak.icu напиши любое слово или цифру, Пример http://le4f.vidak.icu

MVO

2 сезон

2 сезон

1

1 сезон

iTunes

2 сезон

13

1 сезон

Deluxe

pack

Рекомендуем

Пиратка

30

ВАЖНО

RePack

MK11

RePack

jed

RePack

fifa19

RePack

RDR2

RePack

NEED FOR SPEED™ PAYBACK

Кинопоиск HD

6 сезон

 Острые козырьки 6 сезон

Все сериалы

все сериалы на PB.wtf

RePack

FAR CRY 5

Anonymous, нам критически не хватает 5601 руб. на оплату серверов и переферии за Апрель, помоги нам пожалуйста, вся надежда только на тебя. В благодарность мы отключим тебе всю рекламу на сайте!

×
  
Magnet ссылка

Зловещий Эд / Evil Ed (Андерс Якобссон) [1995 г., ужасы, комедия, BDRip 1080p] 5xAVO (Горчаков, Визгунов, Карцев, Сонькин, Тимофеев) pb.wtf

Зловещий Эд через торрент pb.wtf

Размер: 9.94 GB | Добавлен: 2 года 8 мес. назад | Торрент скачан:2 раза
Смотреть онлайн Зловещий Эд | Скачать    Ребята, помогите собрать деньги на оплату серверов!!!

24-08-2019 15:09 Зловещий Эд Скачать торрент  

Зловещий Эд / Evil Ed
Год выпуска: 1995

Страна: Швеция

Жанр: Ужасы, комедия

Продолжительность: 01:38:50

Перевод: Авторский (одноголосый)

Режиссер: Андерс Якобссон

rating

В ролях: Йохан Рудебек, Пер Лефберг, Олоф Родин, Герт Филкинг, Камела Льерт, Сесилия Юнг, Ганс Вильхельмссон, Андерс Эк

Описание: Продюсер фильмов ужасов приглашает в свою студию скромного специалиста по монтажу Эда для того, чтобы тот отредактировал для показа несколько его картин из серии «Потерянные конечности». Предыдущий работник, занимавшийся этим делом, покончил жизнь самоубийством. Эду необходимо вырезать наиболее кровавые и жестокие эпизоды. Но тот сходит с ума от обилия крови, извращений и насилия, и сам начинает «мочить» всех подряд самыми изысканными способами…
Качество: BDRip 1080p
Формат: MKV
Видео: MPEG-4 AVC, 11.9 Мбит/с, 1920x1080
Аудио#1: Русский, AC3, 2 ch, 192 Кбит/с - AVO (Горчаков)
Аудио#2: Русский, AC3, 2 ch, 192 Кбит/с - AVO (Визгунов)
Аудио#3: Русский, AC3, 2 ch, 192 Кбит/с - AVO (Карцев)
Аудио#4: Русский, AC3, 2 ch, 192 Кбит/с - AVO (Сонькин)
Аудио#5: Русский, AC3, 2 ch, 192 Кбит/с - AVO (Тимофеев)
Аудио#6: Английский, AC3, 6 ch, 640 Кбит/с
Аудио#7: Английский, AC3, 2 ch, 640 Кбит/с
Видео
Идентификатор : 1
Формат : AVC
Формат/Информация : Advanced Video Codec
Профиль формата : High@L4.1
Настройки формата : CABAC / 3 Ref Frames
Параметр CABAC формата : Да
Параметр RefFrames формата : 3 кадра
Идентификатор кодека : V_MPEG4/ISO/AVC
Продолжительность : 1 ч. 38 м.
Битрейт : 11,9 Мбит/сек
Ширина : 1920 пикселей
Высота : 1080 пикселей
Соотношение сторон : 16:9
Режим частоты кадров : Постоянный
Частота кадров : 23,976 (24000/1001) кадра/сек
Цветовое пространство : YUV
Субдискретизация насыщенности : 4:2:0
Битовая глубина : 8 бит
Тип развёртки : Прогрессивная
Бит/(Пиксели*Кадры) : 0.239
Размер потока : 8,19 Гбайт (82%)
Заголовок : Evil Ed 1995 1080p GBR Special Edition Blu-ray AVC DTS-HD MA 5.1-ESiR
Библиотека кодирования : x264 core 128 r2216M 198a7ea
Настройки программы : cabac=1 / ref=3 / deblock=1:0:0 / analyse=0x3:0x133 / me=hex / subme=7 / psy=1 / psy_rd=1.00:0.20 / mixed_ref=1 / me_range=16 / chroma_me=1 / trellis=1 / 8x8dct=1 / cqm=0 / deadzone=21,11 / fast_pskip=1 / chroma_qp_offset=-3 / threads=8 / lookahead_threads=1 / sliced_threads=0 / nr=0 / decimate=1 / interlaced=0 / bluray_compat=0 / constrained_intra=0 / bframes=3 / b_pyramid=1 / b_adapt=2 / b_bias=0 / direct=3 / weightb=1 / open_gop=0 / weightp=2 / keyint=230 / keyint_min=23 / scenecut=40 / intra_refresh=0 / rc_lookahead=40 / rc=crf / mbtree=1 / crf=20.0 / qcomp=0.60 / qpmin=10 / qpmax=51 / qpstep=4 / vbv_maxrate=13000 / vbv_bufsize=13000 / crf_max=30.0 / nal_hrd=none / ip_ratio=1.40 / aq=1:1.00
Default : Да
Forced : Нет
Statistics Tags Issue : mkvmerge v9.8.0 ('Kuglblids') 32bit 2017-11-10 07:12:59 / XviD4PSP 6.0 / 54.29.105 2017-11-10 07:12:59 / UTC 2017-11-10 07:12:59
FromStats_BitRate : 33665071
FromStats_Duration : 01:38:49.716000000
FromStats_FrameCount : 142171
FromStats_StreamSize : 24953039442

Аудио #1
Идентификатор : 2
Формат : AC-3
Формат/Информация : Audio Coding 3
Коммерческое название : Dolby Digital
Идентификатор кодека : A_AC3
Продолжительность : 1 ч. 38 м.
Вид битрейта : Постоянный
Битрейт : 192 Кбит/сек
Каналы : 2 канала
Channel layout : L R
Частота : 48,0 КГц
Частота кадров : 31,250 кадров/сек (1536 SPF)
Битовая глубина : 16 бит
Метод сжатия : С потерями
Задержка видео : 27 мс.
Размер потока : 136 Мбайт (1%)
Заголовок : Gorchakov AC3 2.0 224 kbps
Язык : Russian
ServiceKind/String : Complete Main
Default : Да
Forced : Нет
Statistics Tags Issue : mkvmerge v9.8.0 ('Kuglblids') 32bit 2017-11-10 07:12:59 / XviD4PSP 6.0 / 54.29.105 2017-11-10 07:12:59 / UTC 2017-11-10 07:12:59
FromStats_BitRate : 224000
FromStats_Duration : 01:38:49.728000000
FromStats_FrameCount : 185304
FromStats_StreamSize : 166032384

Аудио #2
Идентификатор : 3
Формат : AC-3
Формат/Информация : Audio Coding 3
Коммерческое название : Dolby Digital
Идентификатор кодека : A_AC3
Продолжительность : 1 ч. 38 м.
Вид битрейта : Постоянный
Битрейт : 192 Кбит/сек
Каналы : 2 канала
Channel layout : L R
Частота : 48,0 КГц
Частота кадров : 31,250 кадров/сек (1536 SPF)
Битовая глубина : 16 бит
Метод сжатия : С потерями
Задержка видео : 27 мс.
Размер потока : 136 Мбайт (1%)
Заголовок : Vizgunov AC3 2.0 224 kbps
Язык : Russian
ServiceKind/String : Complete Main
Default : Да
Forced : Нет
Statistics Tags Issue : mkvmerge v9.8.0 ('Kuglblids') 32bit 2017-11-10 07:12:59 / XviD4PSP 6.0 / 54.29.105 2017-11-10 07:12:59 / UTC 2017-11-10 07:12:59
FromStats_BitRate : 224000
FromStats_Duration : 01:38:49.728000000
FromStats_FrameCount : 185304
FromStats_StreamSize : 166032384

Аудио #3
Идентификатор : 4
Формат : AC-3
Формат/Информация : Audio Coding 3
Коммерческое название : Dolby Digital
Идентификатор кодека : A_AC3
Продолжительность : 1 ч. 38 м.
Вид битрейта : Постоянный
Битрейт : 192 Кбит/сек
Каналы : 2 канала
Channel layout : L R
Частота : 48,0 КГц
Частота кадров : 31,250 кадров/сек (1536 SPF)
Битовая глубина : 16 бит
Метод сжатия : С потерями
Задержка видео : 27 мс.
Размер потока : 136 Мбайт (1%)
Заголовок : Kartsev AC3 2.0 224 kbps
Язык : Russian
ServiceKind/String : Complete Main
Default : Да
Forced : Нет
Statistics Tags Issue : mkvmerge v9.8.0 ('Kuglblids') 32bit 2017-11-10 07:12:59 / XviD4PSP 6.0 / 54.29.105 2017-11-10 07:12:59 / UTC 2017-11-10 07:12:59
FromStats_BitRate : 224000
FromStats_Duration : 01:38:49.728000000
FromStats_FrameCount : 185304
FromStats_StreamSize : 166032384

Аудио #4
Идентификатор : 5
Формат : AC-3
Формат/Информация : Audio Coding 3
Коммерческое название : Dolby Digital
Идентификатор кодека : A_AC3
Продолжительность : 1 ч. 38 м.
Вид битрейта : Постоянный
Битрейт : 192 Кбит/сек
Каналы : 2 канала
Channel layout : L R
Частота : 48,0 КГц
Частота кадров : 31,250 кадров/сек (1536 SPF)
Битовая глубина : 16 бит
Метод сжатия : С потерями
Задержка видео : 27 мс.
Размер потока : 136 Мбайт (1%)
Заголовок : Sonkin AC3 2.0 224 kbps
Язык : Russian
ServiceKind/String : Complete Main
Default : Да
Forced : Нет
Statistics Tags Issue : mkvmerge v9.8.0 ('Kuglblids') 32bit 2017-11-10 07:12:59 / XviD4PSP 6.0 / 54.29.105 2017-11-10 07:12:59 / UTC 2017-11-10 07:12:59
FromStats_BitRate : 224000
FromStats_Duration : 01:38:49.760000000
FromStats_FrameCount : 185305
FromStats_StreamSize : 166033280

Аудио #5
Идентификатор : 6
Формат : AC-3
Формат/Информация : Audio Coding 3
Коммерческое название : Dolby Digital
Идентификатор кодека : A_AC3
Продолжительность : 1 ч. 38 м.
Вид битрейта : Постоянный
Битрейт : 192 Кбит/сек
Каналы : 2 канала
Channel layout : L R
Частота : 48,0 КГц
Частота кадров : 31,250 кадров/сек (1536 SPF)
Битовая глубина : 16 бит
Метод сжатия : С потерями
Задержка видео : 27 мс.
Размер потока : 136 Мбайт (1%)
Заголовок : Timofeev AC3 2.0 224 kbps
Язык : Russian
ServiceKind/String : Complete Main
Default : Да
Forced : Нет
Statistics Tags Issue : mkvmerge v9.8.0 ('Kuglblids') 32bit 2017-11-10 07:12:59 / XviD4PSP 6.0 / 54.29.105 2017-11-10 07:12:59 / UTC 2017-11-10 07:12:59
FromStats_BitRate : 224000
FromStats_Duration : 01:38:49.792000000
FromStats_FrameCount : 185306
FromStats_StreamSize : 166034176

Аудио #6
Идентификатор : 7
Формат : AC-3
Формат/Информация : Audio Coding 3
Коммерческое название : Dolby Digital
Идентификатор кодека : A_AC3
Продолжительность : 1 ч. 38 м.
Вид битрейта : Постоянный
Битрейт : 640 Кбит/сек
Каналы : 6 каналов
Channel layout : L R C LFE Ls Rs
Частота : 48,0 КГц
Частота кадров : 31,250 кадров/сек (1536 SPF)
Битовая глубина : 16 бит
Метод сжатия : С потерями
Задержка видео : 27 мс.
Размер потока : 452 Мбайт (4%)
Заголовок : Original DTS-HD MA 5.1 3842 kbps
Язык : English
ServiceKind/String : Complete Main
Default : Да
Forced : Нет
Statistics Tags Issue : mkvmerge v9.8.0 ('Kuglblids') 32bit 2017-11-10 07:12:59 / XviD4PSP 6.0 / 54.29.105 2017-11-10 07:12:59 / UTC 2017-11-10 07:12:59
FromStats_BitRate : 3841519
FromStats_Duration : 01:38:49.760000000
FromStats_FrameCount : 555915
FromStats_StreamSize : 2847411192

Аудио #7
Идентификатор : 8
Формат : AC-3
Формат/Информация : Audio Coding 3
Коммерческое название : Dolby Digital
Идентификатор кодека : A_AC3
Продолжительность : 1 ч. 38 м.
Вид битрейта : Постоянный
Битрейт : 640 Кбит/сек
Каналы : 2 канала
Channel layout : L R
Частота : 48,0 КГц
Частота кадров : 31,250 кадров/сек (1536 SPF)
Битовая глубина : 16 бит
Метод сжатия : С потерями
Задержка видео : 27 мс.
Размер потока : 452 Мбайт (4%)
Заголовок : Original FLAC 2.0 ~1350 kbps
Язык : English
ServiceKind/String : Complete Main
Default : Да
Forced : Нет
Statistics Tags Issue : mkvmerge v9.8.0 ('Kuglblids') 32bit 2017-11-10 07:12:59 / XviD4PSP 6.0 / 54.29.105 2017-11-10 07:12:59 / UTC 2017-11-10 07:12:59
FromStats_BitRate : 1350321
FromStats_Duration : 01:38:49.760000000
FromStats_FrameCount : 69490
FromStats_StreamSize : 1000885114

скриншот   скриншот   скриншот   скриншот  

pb.wtf



Скачать Зловещий Эд через торрент https://i3.imageban.ru/out/2019/08/24/e2d014c2c5e9b4edccde022d0c37b7f3.gif Скачать, смотреть онлайн Зловещий Эд бесплантно в хорошем качестве Описание: Продюсер фильмов ужасов приглашает в свою студию скромного специалиста по монтажу Эда для того, чтобы тот отредактировал для ... 5 10 1
Торрент: Зарегистрирован [2019-08-24 15:09] · скачан: 2 раз
Статус: √ проверено
Размер: 9.94 GB
Как cкачать? Как скачать Зловещий Эд через торрент | UTorrent

% Раздел Тема Автор DL S | L
Фильмы с авторской озвучкой [ 1.45 GB ] Зловещий Эд / Evil Ed [1995 г BDRip] 3xAVO koenig Скачать
1 | 0

28-11-2019 20:33  

Отключить всю рекламу на сайте

    Дорогой пользователь! Огромная просьба, поблагодарите релизера, оцените раздачу и оставьте свои комментарий, если Вы скачали Зловещий Эд через торрент бесплатно!
    Комментировать посты могут только пользователи прошедшие не сложную регистрацию
    Показать сообщения:    

    Зловещий Эд через торрент
    Скачать бесплатно Зловещий Эд
    Зловещий Эд скачать торрент
    Зловещий Эд смотреть онлайн
    Cкачать фильм Зловещий Эд бесплатно
    Зловещий Эд скачать торрент в хорошем качестве
    Зловещий Эд смотреть онлайн бесплатно в хорошем качестве


    Вы не можете начинать темы
    Вы не можете отвечать на сообщения
    Вы не можете редактировать свои сообщения
    Вы не можете удалять свои сообщения
    Вы не можете голосовать в опросах
    Вы не можете прикреплять файлы к сообщениям
    Вы можете скачивать файлы