2 сезон

iTunes

MVO

1

2 сезон

iTunes

iTunes

1 сезон

RePack

30

Новинка

ВАЖНО

ИГРА 18+

pack

RePack

MK11
pack

Легкие деньги

RePack

jed

RePack

fifa19

RePack

RDR2

RePack

NEED FOR SPEED™ PAYBACK

4 сезон

9 сезон

Бесстыжие 9 сезон

Все сериалы

все сериалы на PB.wtf

RePack

FAR CRY 5

Anonymous, доброе утро, мы не успеваем собрать деньги на оплату серверов за декабрь и январь, помогите нам пожалуйста в это трудное время. В качестве благодарности мы отключим Вам всю рекламу на сайте (укажите свой ник в строку Ваше имя)!

×
  
Magnet ссылка

Титаны / Titans / Сезон: 1 / Серии: 1-11 из 11 (Брэд Андерсон, Грант Харви, Джон Фоусет) [2018, Фантастика, фэнтези, боевик, приключения, WEBRip 1080p] MVO [NewStudio] pb.wtf

Титаны через торрент pb.wtf

Размер: 18.63 GB | Добавлен: 1 год 4 мес. назад | Торрент скачан:47 раз
Скачать  

24-08-2019 16:52 Титаны Скачать торрент  

Титаны | Titans Год выпуска: 2018
Страна: США
Жанр: Фантастика, фэнтези, боевик, приключения
Продолжительность: ~ 00:50:00
Перевод: Профессиональный (многоголосый закадровый) | NewStudio
Субтитры: Русские (Forced, Full [PhysKids]), английские

Режиссёр: Брэд Андерсон, Грант Харви, Джон Фоусет

В ролях: Брентон Туэйтс, Тиган Крофт, Анна Диоп, Линдси Горт, Минка Келли, Райан Поттер, Алан Ричсон, Каррен Уолтерс, Шеймус Девер, Бруно Бичир и др.

Описание: В надежде остановить своего отца — древнего демона Тригона — обладательница невероятных способностей девушка Рэйвен обращается за помощью к Робину. Бывший напарник Бэтмена теперь сам вершит правосудие на улицах Готэма, но, чтобы остановить зло, Рэйвен и Робину понадобится подмога.

rating

Качество: WEBRip 1080p
Контейнер: MKV

Видео: 1920x1080, 23.976 кадра/сек, MPEG-4 AVC, ~ 5000 Кбит/сек
Аудио Rus: AC3, 48,0 kHz, 2 ch, 192 Кбит/сек | NewStudio
Аудио Eng: LC-AAC, 48 kHz, 2 ch, 128 Кбит/сек


Реклама: Отсутствует
• Forced субтитры от NewStudio, Full от PhysKids
• Сборкой и очисткой от рекламы занимался: Wanterlude
01. Титаны / Titans
02. Ястреб и Голубка / Hawk and Dove
03. Истоки / Origins
04. Роковой патруль / Doom Patrol
05. Вместе / Together
06. Джейсон Тодд / Jason Todd
07. Больница / Asylum
08. Донна Трой / Donna Troy
09. Хэнк и Дон / Hank and Dawn
10. Корианд'р / Koriand'r
11. Дик Грейсон / Dick Grayson
Общее
Уникальный идентификатор : 284866670457831530738572723918266992303 (0xD64F533865028EE640CC6BAD433486AF)
Полное имя : E:\Titans.s01.WEBDL.1080p.NewStudio.(Wanterlude)\Titans.s01e01.WEBDL.1080p.NewStudio.(Wanterlude).mkv
Формат : Matroska
Версия формата : Version 4
Размер файла : 1,88 Гбайт
Продолжительность : 50 м. 42 с.
Общий поток : 5302 Кбит/сек
Название фильма : Titans | Ep 01 | NewStudio
Дата кодирования : UTC 2018-11-20 06:44:14
Программа кодирования : mkvmerge v28.1.0 ('Morning Child') 64-bit
Библиотека кодирования : libebml v1.3.6 + libmatroska v1.4.9

Видео
Идентификатор : 1
Формат : AVC
Формат/Информация : Advanced Video Codec
Профиль формата : Baseline@L4
Настройки формата : 4 Ref Frames
Параметр CABAC формата : Нет
Параметр RefFrames формата : 4 кадра
Параметр GOP формата : M=1, N=48
Идентификатор кодека : V_MPEG4/ISO/AVC
Продолжительность : 50 м. 42 с.
Битрейт : 4979 Кбит/сек
Ширина : 1920 пикселей
Высота : 1080 пикселей
Соотношение сторон : 16:9
Режим частоты кадров : Постоянный
Частота кадров : 23,976 (24000/1001) кадра/сек
Цветовое пространство : YUV
Субдискретизация насыщенности : 4:2:0
Битовая глубина : 8 бит
Тип развёртки : Прогрессивная
Бит/(Пиксели*Кадры) : 0.100
Размер потока : 1,76 Гбайт (94%)
Заголовок : Titans | Ep 01 | NewStudio
Библиотека кодирования : Zencoder Video Encoding System
Default : Да
Forced : Нет
Цветовой диапазон : Limited
Основные цвета : BT.709
Характеристики трансфера : BT.709
Коэффициенты матрицы : BT.709

Аудио #1
Идентификатор : 2
Формат : AC-3
Формат/Информация : Audio Coding 3
Коммерческое название : Dolby Digital
Идентификатор кодека : A_AC3
Продолжительность : 50 м. 42 с.
Вид битрейта : Постоянный
Битрейт : 192 Кбит/сек
Каналы : 2 канала
Channel layout : L R
Частота : 48,0 КГц
Частота кадров : 31,250 кадров/сек (1536 SPF)
Битовая глубина : 16 бит
Метод сжатия : С потерями
Размер потока : 69,6 Мбайт (4%)
Заголовок : NewStudio | Wanterlude
Язык : Russian
ServiceKind/String : Complete Main
Default : Да
Forced : Да

Аудио #2
Идентификатор : 3
Формат : AAC LC
Формат/Информация : Advanced Audio Codec Low Complexity
Идентификатор кодека : A_AAC-2
Продолжительность : 50 м. 42 с.
Битрейт : 128 Кбит/сек
Каналы : 2 канала
Channel layout : L R
Частота : 48,0 КГц
Частота кадров : 46,875 кадров/сек (1024 SPF)
Метод сжатия : С потерями
Размер потока : 46,4 Мбайт (2%)
Язык : English
Default : Нет
Forced : Нет

Текст #1
Идентификатор : 4
Формат : ASS
Идентификатор кодека : S_TEXT/ASS
Идентификатор кодека/Информация : Advanced Sub Station Alpha
Продолжительность : 13 м. 11 с.
Битрейт : 1 бит/сек
ElementCount : 3
Метод сжатия : Без потерь
Размер потока : 152 байт (0%)
Заголовок : Forced
Язык : Russian
Default : Да
Forced : Да

Текст #2
Идентификатор : 5
Формат : UTF-8
Идентификатор кодека : S_TEXT/UTF8
Идентификатор кодека/Информация : UTF-8 Plain Text
Продолжительность : 49 м. 5 с.
Битрейт : 45 бит/сек
ElementCount : 399
Размер потока : 16,5 Кбайт (0%)
Заголовок : Full
Язык : Russian
Default : Нет
Forced : Нет

Текст #3
Идентификатор : 6
Формат : UTF-8
Идентификатор кодека : S_TEXT/UTF8
Идентификатор кодека/Информация : UTF-8 Plain Text
Продолжительность : 47 м. 54 с.
Битрейт : 25 бит/сек
ElementCount : 384
Размер потока : 9,03 Кбайт (0%)
Заголовок : SDH
Язык : English
Default : Нет
Forced : Нет
скриншот  скриншот  скриншот  скриншот  
pb.wtf



Скачать Титаны через торрент http://i77.fastpic.ru/big/2018/1012/07/e30cca3f916da8200723d91183391a07.png Скачать фильм Титаны через торрент бесплантно в хорошем качестве Описание: В надежде остановить своего отца — древнего демона Тригона — обладательница невероятных способностей девушка Рэйвен обращается за ... 10 10 6
Торрент: Зарегистрирован [2019-08-24 16:52] · скачан: 47 раз
Статус: √ проверено
Размер: 18.63 GB
Как cкачать? Как скачать Титаны через торрент | UTorrent

% Раздел Тема Автор DL S | L
Зарубежные сериалы [ 83.99 GB ] Титаны / Titans / Сезон: 1 / Серии: 1-11 из 11 [2018 BD Remux 1080p] MVO [LostFilm] bober100 Скачать
1 | 0
Зарубежные сериалы [ 11.65 GB ] Титаны / Titans / Сезон: 1 / Серии: 1-11 из 11 [2018 WEB-DL 720p] [MVO] killermax2013 Скачать
1 | 0
Зарубежные сериалы [ 16.42 GB ] Титаны / Titans / Сезон: 1 / Серии: 1-11 из 11 [2018 WEB-DL 1080p] [MVO] killermax2013 Скачать
1 | 0
Зарубежные сериалы [ 7.69 GB ] Титаны / Titans / Сезон: 1 / Серии: 1-11 из 11 [2018 WEB-DLRip] [MVO] killermax2013 Скачать
2 | 0
Зарубежные сериалы [ 18.63 GB ] Титаны / Titans / Сезон: 1 / Серии: 1-11 из 11 [2018 WEB-DL 1080p] [MVO] killermax2013 Скачать
1 | 0
Зарубежные сериалы [ 26.75 GB ] Титаны / Titans / Сезон: 1 / Серии: 1-11 из 11 [2018 WEBRip 1080p] MVO [Lostfilm] bober100 Скачать
1 | 0
Зарубежные сериалы [ 4.15 GB ] Титаны / Titans / Сезон: 1 / Серии: 1-11 из 11 [2018 WEBRip] MVO [Lostfilm] bober100 Скачать
1 | 0

28-11-2019 20:33  

Отключить всю рекламу на сайте

    Дорогой пользователь! Огромная просьба, поблагодарите релизера, оцените раздачу и оставьте свои комментарий, если Вы скачали Титаны через торрент бесплатно! Внесите свою лепту в развитие PiratBit!
    Комментировать посты могут только пользователи прошедшие не сложную регистрацию
    Показать сообщения:    

    Титаны через торрент
    Скачать бесплатно Титаны
    Титаны скачать торрент
    Титаны смотреть онлайн
    Cкачать фильм Титаны бесплатно
    Титаны скачать торрент в хорошем качестве
    Титаны смотреть онлайн бесплатно в хорошем качестве


    Вы не можете начинать темы
    Вы не можете отвечать на сообщения
    Вы не можете редактировать свои сообщения
    Вы не можете удалять свои сообщения
    Вы не можете голосовать в опросах
    Вы не можете прикреплять файлы к сообщениям
    Вы можете скачивать файлы