Ссылка на приватное зеркало нашего сайта всего за 1$. Внимание количество ограничено!!!

2 сезон

iTunes

1 сезон

1

2 сезон

2 сезон

iTunes

1 сезон

RePack

30

Новинка

ВАЖНО

ИГРА 18+

pack

RePack

MK11
pack

Забери бонус

RePack

jed

!!Акция!!

Alien_Rage

RePack

fifa19

RePack

Assassins Creed: Odyssey

RePack

NEED FOR SPEED™ PAYBACK

4 сезон

9 сезон

Бесстыжие 9 сезон

Все сериалы

все сериалы на PB.wtf

RePack

FAR CRY 5
  

Больше денег / Деньги, деньги, еще деньги / Mo' Money (Питер МакДоналд / Peter MacDonald) [1992, боевик, триллер, мелодрама, комедия, криминал, WEB-DL 720p] [MVO] + [AVO] (Алексей Михалёв) pb.wtf

Больше денег через торрент pb.wtf

Размер: 2.78 GB | Добавлен: 1 год 3 мес. назад | Торрент скачан:46 раз
Скачать  

24-08-2019 18:20 Больше денег Скачать торрент  

Больше денег / Деньги, деньги, еще деньги / Mo' Money
Год выпуска: 1992
Страна: США
Жанр: боевик, триллер, мелодрама, комедия, криминал
Продолжительность: 01:25:59
Перевод 1: Профессиональный (многоголосый)
Перевод 2: Авторский (одноголосый) - Алексей Михалёв

Субтитры: английские
Режиссер: Питер МакДоналд / Peter MacDonald

В ролях: Дэймон Уайанс, Марлон Уэйэнс, Хэрри Ленникс, Джон Дил, Джо Сантос, Стэйси Дэш

Описание: В этом веселом и несколько сумбурном боевике молодой черный парень вместе со своим братом зарабатывают на жизнь мелким мошенничеством.
Полицейский, бывший партнер его покойного отца наставляет парня на путь истинный, но на работу в банковскую компанию он устраивается, чтобы охмурить симпатичную чернокожую сотрудницу. Он впутывается в опасную махинацию с кредитными карточками, в результате чего последние полчаса экранного времени заняты кровавыми разборками с мордобоем и стрельбой. И все это под музыку "рэп".


Качество: WEB-DL 720p
Формат: MKV
Видео кодек: H264
Аудио кодек: AC3, AAC
Видео: H.264/AVC, 1280x720, 4 442 kb/s, 23.976 fps
Аудио 1: 48 kHz, AC3 Dolby Digital, 2/0: L,R 48KHz 192 Kbit/s - MVO
Аудио 2: 48 kHz, AC3 Dolby Digital, 2/0: L,R 48KHz 192 Kbit/s - AVO
Аудио 3: 48 kHz, AAC Dolby Digital, 2/0: L,R 48KHz 192 Kbit/s - ENG
General
Unique ID : 73172565256642405009079621417158963085 (0x370C86010D19DAF2E5B9FAB8E5E9EF8D)
Complete name : E:\INTERNET\Больше денег - Mo.Money.1992.720p.WEB-DL.mkv
Format : Matroska
Format version : Version 4 / Version 2
File size : 2.78 GiB
Duration : 1 h 29 min
Overall bit rate : 4 442 kb/s
Movie name : Dol.a.le.1992.HUN.720p.WEB-DL.h264-TOXI
Encoded date : UTC 2019-08-22 16:46:18
Writing application : mkvmerge v36.0.0 ('Is That Jazz?') 64-bit
Writing library : libebml v1.3.9 + libmatroska v1.5.2

Video
ID : 1
Format : AVC
Format/Info : Advanced Video Codec
Format profile : High@L3.1
Format settings : 2 Ref Frames
Format settings, CABAC : No
Format settings, RefFrames : 2 frames
Codec ID : V_MPEG4/ISO/AVC
Duration : 1 h 29 min
Width : 1 280 pixels
Height : 720 pixels
Display aspect ratio : 16:9
Frame rate mode : Constant
Frame rate : 23.976 FPS
Color space : YUV
Chroma subsampling : 4:2:0
Bit depth : 8 bits
Scan type : Progressive
Language : English
Default : Yes
Forced : No
Color range : Limited
Color primaries : BT.709
Transfer characteristics : BT.709
Matrix coefficients : BT.709

Audio #1
ID : 2
Format : AC-3
Format/Info : Audio Coding 3
Format settings, Endianness : Big
Codec ID : A_AC3
Duration : 1 h 29 min
Bit rate mode : Constant
Bit rate : 192 kb/s
Channel(s) : 2 channels
Channel positions : Front: L R
Sampling rate : 48.0 kHz
Frame rate : 31.250 FPS (1536 SPF)
Bit depth : 16 bits
Compression mode : Lossy
Delay relative to video : 500 ms
Stream size : 123 MiB (4%)
Title : MVO
Language : Russian
Service kind : Complete Main
Default : Yes
Forced : No

Audio #2
ID : 3
Format : AC-3
Format/Info : Audio Coding 3
Format settings, Endianness : Big
Codec ID : A_AC3
Duration : 1 h 29 min
Bit rate mode : Constant
Bit rate : 192 kb/s
Channel(s) : 2 channels
Channel positions : Front: L R
Sampling rate : 48.0 kHz
Frame rate : 31.250 FPS (1536 SPF)
Bit depth : 16 bits
Compression mode : Lossy
Stream size : 123 MiB (4%)
Title : AVO Mihalev
Language : Russian
Service kind : Complete Main
Default : No
Forced : No

Audio #3
ID : 4
Format : AAC
Format/Info : Advanced Audio Codec
Format profile : LC
Codec ID : A_AAC-2
Duration : 1 h 29 min
Channel(s) : 2 channels
Channel positions : Front: L R
Sampling rate : 48.0 kHz
Frame rate : 46.875 FPS (1024 SPF)
Compression mode : Lossy
Title : English
Language : English
Default : No
Forced : No

Text
ID : 5
Format : UTF-8
Codec ID : S_TEXT/UTF8
Codec ID/Info : UTF-8 Plain Text
Title : Eng
Language : English
Default : No
Forced : No

Menu
00:00:00.000 : en:Start
00:02:56.000 : en:Ripping off Frank Furter
00:07:27.000 : en:Officer in pursuit
00:09:58.000 : en:The holding cell
00:12:37.000 : en:Best lawyer in town
00:19:41.000 : en:"Knowledge is king."
00:23:21.000 : en:Floor-by-floor with Amber
00:24:27.000 : en:Applying for the position
00:27:34.000 : en:Habib's Deli
00:30:03.000 : en:Waiting for the call
00:32:37.000 : en:His first day
00:36:24.000 : en:Amber's department
00:40:10.000 : en:Johnny on the job
00:41:20.000 : en:Amber & Tom
00:43:34.000 : en:Loss of face
00:46:47.000 : en:Shopping spree
00:50:44.000 : en:In Amber's apartment
00:51:55.000 : en:Subway accident
00:53:59.000 : en:Good judge of character
00:58:57.000 : en:Fun with Keith
01:03:49.000 : en:The dance club
01:08:20.000 : en:The morning after
01:10:27.000 : en:Stolen card
01:10:59.000 : en:Interrogation
01:15:18.000 : en:Rescuing Seymour
01:16:36.000 : en:In pursuit of Heading
01:21:48.000 : en:Final confrontation
01:24:01.000 : en:At the hospital
скриншот  скриншот  скриншот  
pb.wtf



Скачать Больше денег через торрент http://i6.imageban.ru/out/2017/04/21/3e5a33cb928610b46feaea2c274fe9e3.jpg Скачать фильм Больше денег через торрент бесплантно в хорошем качестве Описание: В этом веселом и несколько сумбурном боевике молодой черный парень вместе со своим братом зарабатывают на жизнь мелким ... 10 10 2
Info! Золотая раздача, скачанное не засчитывается.
Торрент: Зарегистрирован [2019-08-24 18:20] · скачан: 46 раз
Статус: √ проверено
Размер: 2.78 GB
Как cкачать? Как скачать Больше денег через торрент | qTorrent

28-11-2019 20:33  

Отключить всю рекламу на сайте

24-08-2019 18:51 Больше денег Скачать торрент  

Топик был перенесен из форума Фильмы [HD 720p, 1080p] (Хороший звук DUB, MVO) в форум Фильмы (WEB-DL 720p, 1080p)


bober100pb.wtf



    Дорогой пользователь! Огромная просьба, поблагодарите релизера, оцените раздачу и оставьте свои комментарий, если Вы скачали Больше денег через торрент бесплатно! Внесите свою лепту в развитие PiratBit!
    Комментировать посты могут только пользователи прошедшие не сложную регистрацию
    Показать сообщения:    

    Больше денег через торрент
    Скачать бесплатно Больше денег
    Больше денег скачать торрент
    Больше денег смотреть онлайн
    Cкачать фильм Больше денег бесплатно
    Больше денег скачать торрент в хорошем качестве
    Больше денег смотреть онлайн бесплатно в хорошем качестве


    Вы не можете начинать темы
    Вы не можете отвечать на сообщения
    Вы не можете редактировать свои сообщения
    Вы не можете удалять свои сообщения
    Вы не можете голосовать в опросах
    Вы не можете прикреплять файлы к сообщениям
    Вы можете скачивать файлы