Ссылка на приватное зеркало всего за 1$. Внимание количество ограничено!!!

iTunes

1+1

iTunes

мы

WEB-DL

1

iTunes

Чернобыль

iTunes

Ральф против интернета

Лицензия

ПШазам

Лицензия

Оно 2

Лицензия

30
pack

Вам бонус

ВАЖНО

!!Акция!!

Alien_RageХит недели

RePack

Resident Evil 21

ИГРА 18+

pack

RePack

jed

!!Акция!!

Alien_Rage

RePack

fifa19

RePack

Assassins Creed: Odyssey

RePack

NEED FOR SPEED™ PAYBACK

3 сезон

9 сезон

Бесстыжие 9 сезон

Все сериалы

все сериалы на PB.wtf

RePack

FAR CRY 5
Ребята, катастрофически не хватает 1900р. для оплаты серверов за Октябрь (всвязи с блокировками трафик упал в 3 раза), 1-2р., выручайте.
  

Девица / Damsel (Дэвид Зеллнер, Нэйтан Зеллнер) [2018, драма, комедия, вестерн, BDRip-AVC] 2xMVO [iTunes, HDRezka Studio] pb.wtf

Девица через торрент pb.wtf

Размер: 2.23 GB | Добавлен: 3 мес. 19 д. назад | Торрент скачан:134 раза
Скачать  

24-08-2019 21:10 Девица Скачать торрент  

Девица / Damsel
Год выпуска: 2018
Страна: США
Жанр: драма, комедия, вестерн
Продолжительность: 01:53:27
Перевод:

Профессиональный (многоголосый) | iTunes
Профессиональный (многоголосый, закадровый) | HDRezka Studio

Субтитры: Русские (полные), Английские (полные)

Режиссер: Дэвид Зеллнер, Нэйтан Зеллнер

rating

В ролях: Роберт Паттинсон, Миа Васиковска, Дэвид Зеллнер, Нэйтан Зеллнер, Роберт Форстер, Джозеф Биллинджир, Морган Ланд, Рэй Келлехер, Робин Адамс, Гэри Брукинс

Описание: Самуэль Алабастер - в меру нарциссичный педант с носовыми платочками и историями про похищенную негодяями невесту Пенелопу. Самуэль не умеет пить виски и даже войти в салун не может эффектно, запутавшись в ремне от гитары. Верный соратник ковбоя - Генри, выдающий себя за миссионера-проповедника. Когда-то посреди пустыни измученный жизнью пастор отдал ему потрепанную Библию и полное обмундирование священника. Проповеди Генри слушают разве что крабы - большую часть времени пастор валяется на пляже мертвецки пьяным. Да и девушку не нужно спасать от разбойников - Пенелопа метко стреляет из двустволки, умеет пользоваться динамитом, сама кого хочешь и спасет, и пристрелит.

Качество: BDRip-AVC
Формат: MKV

Видео: 1024x428 (2.40:1), 23,976 fps, x264 ~1 786 Mbps avg, 0.170 bit/pixel
Аудио #1: 48 kHz, AC3 Dolby Digital, 3/2 (L,C,R,l,r) + LFE ch, ~384.00 kbps avg | RUS (iTunes)
Аудио #2: 48 kHz, AC3 Dolby Digital, 2 (L,R) ch, ~192.00 kbps avg | RUS (HDRezka Studio)
Аудио #3: 48 kHz, AC3 Dolby Digital, 3/2 (L,C,R,l,r) + LFE ch, ~448.00 kbps avg | ENG
скриншот  скриншот  скриншот  скриншот  скриншот  

Общее
Уникальный идентификатор : 270971432356471291935118289598401055590 (0xCBDB3316AF253A038184FCD79A6D8B66)
Полное имя : F:OlLanDGroupDamsel.2018.BDRip(AVC).OllanDGroup.mkv
Формат : Matroska
Версия формата : Version 4 / Version 2
Размер файла : 2,23 Гбайт
Продолжительность : 1 ч. 53 м.
Общий поток : 2811 Кбит/сек
Название фильма : Damsel.2018 #TorpedoUK#
Дата кодирования : UTC 2019-08-24 19:19:43
Программа кодирования : mkvmerge v29.0.0 ('Like It Or Not') 64-bit
Библиотека кодирования : libebml v1.3.6 + libmatroska v1.4.9

Видео
Идентификатор : 1
Формат : AVC
Формат/Информация : Advanced Video Codec
Профиль формата : High@L4.1
Параметр CABAC формата : Да
Параметр ReFrames формата : 10 кадров
Идентификатор кодека : V_MPEG4/ISO/AVC
Продолжительность : 1 ч. 53 м.
Битрейт : 1786 Кбит/сек
Ширина : 1024 пикселя
Высота : 428 пикселей
Соотношение сторон : 2,40:1
Режим частоты кадров : Постоянный
Частота кадров : 23,976 (24000/1001) кадра/сек
Цветовое пространство : YUV
Субдискретизация насыщенности : 4:2:0
Битовая глубина : 8 бит
Тип развёртки : Прогрессивная
Бит/(Пиксели*Кадры) : 0.170
Размер потока : 1,42 Гбайт (63%)
Библиотека кодирования : x264 core 146 r2538 121396c
Настройки программы : cabac=1 / ref=10 / deblock=1:-3:-3 / analyse=0x3:0x113 / me=umh / subme=11 / psy=1 / psy_rd=0.97:0.05 / mixed_ref=1 / me_range=48 / chroma_me=1 / trellis=2 / 8x8dct=1 / cqm=0 / deadzone=21,11 / fast_pskip=1 / chroma_qp_offset=-3 / threads=6 / lookahead_threads=1 / sliced_threads=0 / nr=0 / decimate=1 / interlaced=0 / bluray_compat=0 / constrained_intra=0 / bframes=11 / b_pyramid=2 / b_adapt=2 / b_bias=0 / direct=3 / weightb=1 / open_gop=0 / weightp=2 / keyint=240 / keyint_min=23 / scenecut=40 / intra_refresh=0 / rc_lookahead=40 / rc=2pass / mbtree=0 / bitrate=1786 / ratetol=1.0 / qcomp=0.60 / qpmin=0 / qpmax=69 / qpstep=4 / cplxblur=20.0 / qblur=0.5 / vbv_maxrate=50000 / vbv_bufsize=62500 / nal_hrd=none / filler=0 / ip_ratio=1.40 / pb_ratio=1.30 / aq=1:1.00
Язык : English
Default : Да
Forced : Нет

Аудио #1
Идентификатор : 2
Формат : AC-3
Формат/Информация : Audio Coding 3
Расширение режима : CM (complete main)
Параметр Endianness формата : Big
Идентификатор кодека : A_AC3
Продолжительность : 1 ч. 53 м.
Вид битрейта : Постоянный
Битрейт : 384 Кбит/сек
Каналы : 6 каналов
Расположение каналов : Front: L C R, Side: L R, LFE
Частота : 48,0 КГц
Частота кадров : 31,250 кадров/сек (1536 spf)
Битовая глубина : 16 бит
Метод сжатия : С потерями
Размер потока : 312 Мбайт (14%)
Заголовок : MVO [iTunes]
Язык : Russian
Default : Да
Forced : Нет

Аудио #2
Идентификатор : 3
Формат : AC-3
Формат/Информация : Audio Coding 3
Расширение режима : CM (complete main)
Параметр Endianness формата : Big
Идентификатор кодека : A_AC3
Продолжительность : 1 ч. 53 м.
Вид битрейта : Постоянный
Битрейт : 192 Кбит/сек
Каналы : 2 канала
Расположение каналов : Front: L R
Частота : 48,0 КГц
Частота кадров : 31,250 кадров/сек (1536 spf)
Битовая глубина : 16 бит
Метод сжатия : С потерями
Размер потока : 156 Мбайт (7%)
Заголовок : MVO [HDRezka Studio]
Язык : Russian
Default : Нет
Forced : Нет

Аудио #3
Идентификатор : 4
Формат : AC-3
Формат/Информация : Audio Coding 3
Расширение режима : CM (complete main)
Параметр Endianness формата : Big
Идентификатор кодека : A_AC3
Продолжительность : 1 ч. 53 м.
Вид битрейта : Постоянный
Битрейт : 448 Кбит/сек
Каналы : 6 каналов
Расположение каналов : Front: L C R, Side: L R, LFE
Частота : 48,0 КГц
Частота кадров : 31,250 кадров/сек (1536 spf)
Битовая глубина : 16 бит
Метод сжатия : С потерями
Размер потока : 364 Мбайт (16%)
Заголовок : [Original]
Язык : English
Default : Нет
Forced : Нет

Текст #1
Идентификатор : 5
Формат : UTF-8
Идентификатор кодека : S_TEXT/UTF8
Идентификатор кодека/Информация : UTF-8 Plain Text
Продолжительность : 1 ч. 46 м.
Битрейт : 51 бит/сек
Count of elements : 898
Размер потока : 40,7 Кбайт (0%)
Заголовок : Full
Язык : Russian
Default : Нет
Forced : Нет

Текст #2
Идентификатор : 6
Формат : UTF-8
Идентификатор кодека : S_TEXT/UTF8
Идентификатор кодека/Информация : UTF-8 Plain Text
Продолжительность : 1 ч. 46 м.
Битрейт : 34 бит/сек
Count of elements : 915
Размер потока : 27,2 Кбайт (0%)
Заголовок : Full
Язык : English
Default : Нет
Forced : Нет

Меню
00:00:00.000 : :Chapter 01
00:08:49.654 : :Chapter 02
00:17:58.952 : :Chapter 03
00:22:05.782 : :Chapter 04
00:32:49.384 : :Chapter 05
00:42:13.989 : :Chapter 06
00:50:24.604 : :Chapter 07
01:00:40.178 : :Chapter 08
01:11:06.595 : :Chapter 09
01:22:24.898 : :Chapter 10
01:33:54.170 : :Chapter 11
01:41:26.997 : :Chapter 12

pb.wtf



Скачать Девица через торрент https://i90.fastpic.ru/big/2019/0824/c4/88f0dc264929f8665e390a5e3e52e3c4.jpg Скачать фильм Девица через торрент бесплантно в хорошем качестве Описание: Самуэль Алабастер - в меру нарциссичный педант с носовыми платочками и историями про похищенную негодяями невесту Пенелопу. ... 10 10 6
Info! Золотая раздача, скачанное не засчитывается.
Торрент: Зарегистрирован [2019-08-24 21:10] · скачан: 134 раз
Статус: √ проверено
Размер: 2.23 GB
Как cкачать? Как скачать Девица через торрент | qTorrent

% Раздел Тема Автор DL S | L
Фильмы [HD 720p, 1080p] (Хороший звук DUB, MVO) [ 5.82 GB ] Девица / Damsel [2018 BDRip 720p] 2xMVO [ HDRezka Studio] bober100 Скачать
2 | 0
Фильмы [HD 720p, 1080p] (Хороший звук DUB, MVO) [ 12.16 GB ] Девица / Damsel [2018 BDRip 1080p] 2xMVO [ HDRezka Studio] bober100 Скачать
1 | 0
Нетрадиционное порно [ 350 MB ] Девица С Околицы Связывает Вас так что Вы Можете Изнасиловать ее / Devious damsel ties you up so you can take her down. [HardcoreGangBang / Kink] [2013 Group Sex Anal DP Gang Bang Domination Hardcore. DVDRip Оригинал] Pir@tya2010 Скачать
1 | 1

28-11-2019 20:33  

Отключить всю рекламу на сайте

    Дорогой пользователь! Огромная просьба, поблагодарите релизера, оцените раздачу и оставьте свои комментарий, если Вы скачали Девица через торрент бесплатно! Внесите свою лепту в развитие PiratBit!
    Комментировать посты могут только пользователи прошедшие не сложную регистрацию
    Показать сообщения:    

    Девица через торрент
    Скачать бесплатно Девица
    Девица скачать торрент
    Девица смотреть онлайн
    Cкачать фильм Девица бесплатно
    Девица скачать торрент в хорошем качестве
    Девица смотреть онлайн бесплатно в хорошем качестве


    Вы не можете начинать темы
    Вы не можете отвечать на сообщения
    Вы не можете редактировать свои сообщения
    Вы не можете удалять свои сообщения
    Вы не можете голосовать в опросах
    Вы не можете прикреплять файлы к сообщениям
    Вы можете скачивать файлы