MEGA SALE -50% FORZA HORIZON 4 ULTIMATE+ВСЕ DLC+ОНЛАЙН всего за 599р. 299 руб. (супер цена). Внимание количество ограничено!!!

iTunes

1+1

iTunes

мы

iTunes

1

iTunes

Чернобыль

iTunes

Ральф против интернета

Лицензия

ПШазам

Лицензия

Игра престолов

Лицензия

30
pack

ВАЖНО

!!Акция!!

Alien_RageХит недели

RePack

Resident Evil 21

ИГРА 18+

pack

RePack

Metro:Exodus

!!Акция!!

Alien_Rage

RePack

fifa19

RePack

Assassins Creed: Odyssey

RePack

NEED FOR SPEED™ PAYBACK

3 сезон

9 сезон

Бесстыжие 9 сезон

Все сериалы

все сериалы на PB.wtf

RePack

FAR CRY 5
Ребята, катастрофически не хватает 7730р. для оплаты серверов за АВГУСТ (всвязи с блокировками трафик упал в 3 раза), 1-2р., выручайте.
  

Робот 2.0 / 2.0 (С. Шанкар) [2018, Фантастика, боевик, триллер, комедия, WEB-DLRip] DUB [iTunes] pb.wtf

Робот 2.0 через торрент pb.wtf

Раздают: 4 [ 9 KB/s ]
Размер: 1.43 GB | Добавлен: 22 д. назад | Торрент скачан:39 раз
Скачать  

25-08-2019 00:58 Робот 2.0 Скачать торрент  

Робот 2.0 / 2.0
Год выпуска: 2018
Страна: Индия
Жанр: Фантастика, боевик, триллер, комедия
Продолжительность: 01:40:18
Перевод: Дублированный | iTunes
Субтитры: отсутствуют

Режиссер: С. Шанкар

rating

В ролях: Раджиникант, Акшай Кумар, Эми Джексон, Адиль Хуссэйн, Суданшу Пандей, Калабхаван Шаджон, Анант Нараян Махадеван, Майилсами, Ишари Ганеш, Кайзаад Котваль и др.

Описание: Миру угрожает монструозный крылатый злодей, покусившийся на самое святое, что есть у человечества — мобильные телефоны. Бессовестное чудовище в прямом смысле слова подчиняет себе устройства и создаёт из них могучую армию, способную трансформироваться во что угодно. Так и проиграли бы люди этот неравный бой, если бы не другое важное изобретение — робот Читти.

Качество: WEB-DLRip
Формат: AVI

Видео: Xvid73, 720x304, 1838kbps, 24,000 fps
Аудио: русский, AC3, 2.0 ch, 48 kHz, 192 kbps | iTunes
скриншот  скриншот  скриншот  скриншот  скриншот  

Общее
Полное имя : E:Torrent2Robot20WEBDLRip.avi
Формат : AVI
Формат/Информация : Audio Video Interleave
Профиль формата : OpenDML
Размер файла : 1,43 Гбайт
Продолжительность : 1 ч. 40 м.
Общий поток : 2042 Кбит/сек
Программа кодирования : XviD4PSP 6.0 / 53.6.0

Видео
Идентификатор : 0
Формат : MPEG-4 Visual
Профиль формата : Advanced Simple@L5
Настройки формата : BVOP1 / Custom Matrix
Параметр BVOP формата : 1
Параметр QPel формата : Нет
Параметр GMC формата : Без точки перехода
Параметр матрицы формата : Выборочная
Идентификатор кодека : XVID
Идентификатор кодека/Подсказка : XviD
Продолжительность : 1 ч. 40 м.
Битрейт : 1838 Кбит/сек
Ширина : 720 пикселей
Высота : 304 пикселя
Соотношение сторон : 2,35:1
Частота кадров : 24,000 кадра/сек
Цветовое пространство : YUV
Субдискретизация насыщенности : 4:2:0
Битовая глубина : 8 бит
Тип развёртки : Прогрессивная
Метод сжатия : С потерями
Бит/(Пиксели*Кадры) : 0.350
Размер потока : 1,29 Гбайт (90%)
Библиотека кодирования : XviD 73

Аудио
Идентификатор : 1
Формат : AC-3
Формат/Информация : Audio Coding 3
Параметр Endianness формата : Big
Идентификатор кодека : 2000
Продолжительность : 1 ч. 40 м.
Вид битрейта : Постоянный
Битрейт : 192 Кбит/сек
Каналы : 2 канала
Расположение каналов : Front: L R
Частота : 48,0 КГц
Частота кадров : 31,250 кадров/сек (1536 SPF)
Битовая глубина : 16 бит
Метод сжатия : С потерями
Размер потока : 138 Мбайт (9%)
Выравнивание : Соединение по промежуткам
Продолжительность промежутка : 32 мс. (0,77 видеокадр)

pb.wtf



Скачать Робот 2.0 через торрент http://lostpix.com/thumbs/2019-08/24/kyt5x5827aup7catnv1fdir7l.png Скачать фильм Робот 2.0 через торрент бесплантно в хорошем качестве Описание: Миру угрожает монструозный крылатый злодей, покусившийся на самое святое, что есть у человечества — мобильные телефоны. ... 10 10 5
Торрент: Зарегистрирован [2019-08-25 00:58] · скачан: 39 раз
Статус: √ проверено
Размер: 1.43 GB
Как cкачать? Как скачать Робот 2.0 через торрент | qTorrent

% Раздел Тема Автор DL S | L
Индийское кино [ 3.52 GB ] Робот 2.0 / 2.0 [2018 WEB-DL 1080p] bober100 Скачать
4 | 0


>> Регистрируемся здесь <<






Отзывы и комментарии о схеме читаем и пишем здесь: ---> Отзывы и комментарии о схеме

Новые благодарочки в телеграм довольных пользователей:
скриншот   скриншот   скриншот   скриншот   скриншот

25-08-2019 06:46 Робот 2.0 Скачать торрент  

pb.wtf



    Дорогой пользователь! Огромная просьба, поблагодарите релизера, оцените раздачу и оставьте свои комментарий, если Вы скачали Робот 2.0 через торрент бесплатно! Внесите свою лепту в развитие PiratBit!
    Комментировать посты могут только пользователи прошедшие не сложную регистрацию
    Показать сообщения:    

    Робот 2.0 через торрент
    Скачать бесплатно Робот 2.0
    Робот 2.0 скачать торрент
    Робот 2.0 смотреть онлайн
    Cкачать фильм Робот 2.0 бесплатно
    Робот 2.0 скачать торрент в хорошем качестве
    Робот 2.0 смотреть онлайн бесплатно в хорошем качестве


    Вы не можете начинать темы
    Вы не можете отвечать на сообщения
    Вы не можете редактировать свои сообщения
    Вы не можете удалять свои сообщения
    Вы не можете голосовать в опросах
    Вы не можете прикреплять файлы к сообщениям
    Вы можете скачивать файлы