новый адрес
Ссылка на приватное зеркало всего за 1$. Внимание количество ограничено!!!

iTunes

1+1

iTunes

мы

WEB-DL

1

iTunes

Чернобыль

iTunes

Ральф против интернета

Лицензия

ПШазам

Лицензия

Оно 2

Лицензия

30
pack

Вам бонус

ВАЖНО

!!Акция!!

Alien_RageХит недели

RePack

Resident Evil 21

ИГРА 18+

pack

RePack

jed

!!Акция!!

Alien_Rage

RePack

fifa19

RePack

Assassins Creed: Odyssey

RePack

NEED FOR SPEED™ PAYBACK

3 сезон

9 сезон

Бесстыжие 9 сезон

Все сериалы

все сериалы на PB.wtf

RePack

FAR CRY 5
Ребята, катастрофически не хватает 1900р. для оплаты серверов за Октябрь (всвязи с блокировками трафик упал в 3 раза), 1-2р., выручайте.
  

Видок: Охотник на призраков / Видок: Император Парижа / L'Empereur de Paris (Жан-Франсуа Рише) [2018, приключения, история, BDRip-AVC] DUB [iTunes] +MVO [HDRezka Studio] pb.wtf

Видок: Охотник на призраков через торрент pb.wtf

Раздают: 6 [ 0 KB/s ]
Размер: 1.98 GB | Добавлен: 3 мес. 18 д. назад | Торрент скачан:607 раз
Скачать  

25-08-2019 07:35 Видок: Охотник на призраков Скачать торрент  

Видок: Охотник на призраков / Видок: Император Парижа / L'Empereur de Paris
Год выпуска: 2018
Страна: Франция
Жанр: приключения, история
Продолжительность: 02:00:05
Перевод:

Дублированный | iTunes
Профессиональный (многоголосый) | HDRezka Studio

Субтитры: отсутствуют

Режиссер: Жан-Франсуа Рише

rating

В ролях: Ольга Куриленко, Венсан Кассель, Фрейя Мавор, Аугуст Диль, Дени Меноше, Дени Лаван, Фабрис Лукини, Уилльям Скьортино, Джеймс Тьерре, Патрик Шене

Описание: Правдивая история французского преступника XIX века Эжена Франсуа Видока, который переходил из тюрьмы в тюрьму и менял профессию за профессией, пока не нашёл себя на полицейской службе. Он основал и возглавил первый в мире отдел национальной безопасности, где проработал двадцать лет. Выйдя в отставку, Видок стал частным детективом.

Качество: BDRip-AVC
Формат: MKV

Видео: 1024x428 (2.40:1), 23,976 fps, x264 ~1 791 kbps avg, 0.170 bit/pixel
Аудио: 48 kHz, AC3 Dolby Digital, 3/2 (L,C,R,l,r) + LFE ch, ~384.00 kbps avg | RUS (iTunes)
Аудио: 48 kHz, AC3 Dolby Digital, 2 (L,R) ch, ~192.00 kbps avg | RUS (HDRezka Studio)
скриншот  скриншот  скриншот  скриншот  скриншот  

Общее
Уникальный идентификатор : 329879943313113840792415487391814961300 (0xF82C90EB23CB8D6FF3C02CC8B128C894)
Полное имя : F:OlLanDGroupThe.Emperor.of.Paris.2018.BDRip(AVC).OlLanDGroup.mkv
Формат : Matroska
Версия формата : Version 4 / Version 2
Размер файла : 1,98 Гбайт
Продолжительность : 2 ч. 0 м.
Общий поток : 2366 Кбит/сек
Название фильма : The Emperor of Paris (2018) #TorpedoUK#
Дата кодирования : UTC 2019-08-25 07:02:58
Программа кодирования : mkvmerge v29.0.0 ('Like It Or Not') 64-bit
Библиотека кодирования : libebml v1.3.6 + libmatroska v1.4.9

Видео
Идентификатор : 1
Формат : AVC
Формат/Информация : Advanced Video Codec
Профиль формата : High@L4.1
Параметр CABAC формата : Да
Параметр ReFrames формата : 10 кадров
Идентификатор кодека : V_MPEG4/ISO/AVC
Продолжительность : 2 ч. 0 м.
Битрейт : 1791 Кбит/сек
Ширина : 1024 пикселя
Высота : 428 пикселей
Соотношение сторон : 2,40:1
Режим частоты кадров : Постоянный
Частота кадров : 23,976 (24000/1001) кадра/сек
Цветовое пространство : YUV
Субдискретизация насыщенности : 4:2:0
Битовая глубина : 8 бит
Тип развёртки : Прогрессивная
Бит/(Пиксели*Кадры) : 0.170
Размер потока : 1,50 Гбайт (76%)
Библиотека кодирования : x264 core 146 r2538 121396c
Настройки программы : cabac=1 / ref=10 / deblock=1:-2:-3 / analyse=0x3:0x113 / me=umh / subme=11 / psy=1 / psy_rd=0.95:0.07 / mixed_ref=1 / me_range=48 / chroma_me=1 / trellis=2 / 8x8dct=1 / cqm=0 / deadzone=21,11 / fast_pskip=1 / chroma_qp_offset=-3 / threads=6 / lookahead_threads=1 / sliced_threads=0 / nr=0 / decimate=1 / interlaced=0 / bluray_compat=0 / constrained_intra=0 / bframes=11 / b_pyramid=2 / b_adapt=2 / b_bias=0 / direct=3 / weightb=1 / open_gop=0 / weightp=2 / keyint=240 / keyint_min=23 / scenecut=40 / intra_refresh=0 / rc_lookahead=40 / rc=2pass / mbtree=0 / bitrate=1791 / ratetol=1.0 / qcomp=0.60 / qpmin=0 / qpmax=69 / qpstep=4 / cplxblur=20.0 / qblur=0.5 / vbv_maxrate=50000 / vbv_bufsize=62500 / nal_hrd=none / filler=0 / ip_ratio=1.40 / pb_ratio=1.30 / aq=1:1.00
Язык : English
Default : Да
Forced : Нет

Аудио #1
Идентификатор : 2
Формат : AC-3
Формат/Информация : Audio Coding 3
Расширение режима : CM (complete main)
Параметр Endianness формата : Big
Идентификатор кодека : A_AC3
Продолжительность : 2 ч. 0 м.
Вид битрейта : Постоянный
Битрейт : 384 Кбит/сек
Каналы : 6 каналов
Расположение каналов : Front: L C R, Side: L R, LFE
Частота : 48,0 КГц
Частота кадров : 31,250 кадров/сек (1536 spf)
Битовая глубина : 16 бит
Метод сжатия : С потерями
Размер потока : 330 Мбайт (16%)
Заголовок : DUB [iTunes]
Язык : Russian
Default : Да
Forced : Нет

Аудио #2
Идентификатор : 3
Формат : AC-3
Формат/Информация : Audio Coding 3
Расширение режима : CM (complete main)
Параметр Endianness формата : Big
Идентификатор кодека : A_AC3
Продолжительность : 2 ч. 0 м.
Вид битрейта : Постоянный
Битрейт : 192 Кбит/сек
Каналы : 2 канала
Расположение каналов : Front: L R
Частота : 48,0 КГц
Частота кадров : 31,250 кадров/сек (1536 spf)
Битовая глубина : 16 бит
Метод сжатия : С потерями
Размер потока : 165 Мбайт (8%)
Заголовок : MVO [HDRezka Studio]
Язык : Russian
Default : Нет
Forced : Нет

Меню
00:00:00.000 : en:Chapter 1
00:10:12.821 : en:Chapter 2
00:19:20.493 : en:Chapter 3
00:30:27.325 : en:Chapter 4
00:41:02.293 : en:Chapter 5
00:54:33.020 : en:Chapter 6
01:06:07.338 : en:Chapter 7
01:15:48.335 : en:Chapter 8
01:23:11.778 : en:Chapter 9
01:32:59.240 : en:Chapter 10
01:42:15.504 : en:Chapter 11
01:54:05.213 : en:Chapter 12

pb.wtf



Скачать Видок: Охотник на призраков через торрент https://i110.fastpic.ru/big/2019/0613/a2/c0c90a3ba60f00044473efc6ea5e4ea2.jpg Скачать фильм Видок: Охотник на призраков через торрент бесплантно в хорошем качестве Описание: Правдивая история французского преступника XIX века Эжена Франсуа Видока, который переходил из тюрьмы в тюрьму и менял профессию ... 9.4 10 14
Info! Золотая раздача, скачанное не засчитывается.
Торрент: Зарегистрирован [2019-08-25 07:35] · скачан: 607 раз
Статус: √ проверено
Размер: 1.98 GB
Как cкачать? Как скачать Видок: Охотник на призраков через торрент | qTorrent

28-11-2019 20:33  

Отключить всю рекламу на сайте


25-08-2019 10:27 Видок: Охотник на призраков Скачать торрент  

ремейк что ли??pb.wtf



25-08-2019 20:02 Видок: Охотник на призраков Скачать торрент  

кино на 5pb.wtf



26-08-2019 07:52 Видок: Охотник на призраков Скачать торрент  

Кассель тянет фильм шо безумный...pb.wtf



    Дорогой пользователь! Огромная просьба, поблагодарите релизера, оцените раздачу и оставьте свои комментарий, если Вы скачали Видок: Охотник на призраков через торрент бесплатно! Внесите свою лепту в развитие PiratBit!
    Комментировать посты могут только пользователи прошедшие не сложную регистрацию
    Показать сообщения:    

    Видок: Охотник на призраков через торрент
    Скачать бесплатно Видок: Охотник на призраков
    Видок: Охотник на призраков скачать торрент
    Видок: Охотник на призраков смотреть онлайн
    Cкачать фильм Видок: Охотник на призраков бесплатно
    Видок: Охотник на призраков скачать торрент в хорошем качестве
    Видок: Охотник на призраков смотреть онлайн бесплатно в хорошем качестве


    Вы не можете начинать темы
    Вы не можете отвечать на сообщения
    Вы не можете редактировать свои сообщения
    Вы не можете удалять свои сообщения
    Вы не можете голосовать в опросах
    Вы не можете прикреплять файлы к сообщениям
    Вы можете скачивать файлы