Ссылка на приватное зеркало нашего сайта всего за 1$. Внимание количество ограничено!!!

2 сезон

iTunes

1 сезон

1

2 сезон

2 сезон

iTunes

1 сезон

RePack

30

Ultimate

ВАЖНО

ИГРА 18+

pack

RePack

MK11
pack

Забери бонус

RePack

jed

!!Акция!!

Alien_Rage

RePack

fifa19

RePack

Assassins Creed: Odyssey

RePack

NEED FOR SPEED™ PAYBACK

4 сезон

9 сезон

Бесстыжие 9 сезон

Все сериалы

все сериалы на PB.wtf

RePack

FAR CRY 5
  

Видок: Охотник на призраков / Видок: Император Парижа / L'Empereur de Paris (Жан-Франсуа Рише) [2018, приключения, история, BD Remux 1080p] DUB [iTunes] +MVO [HDRezka Studio] pb.wtf

Видок: Охотник на призраков через торрент pb.wtf

Размер: 32.36 GB | Добавлен: 1 год 3 мес. назад | Торрент скачан:59 раз
Скачать  

25-08-2019 09:17 Видок: Охотник на призраков Скачать торрент  

Видок: Охотник на призраков / Видок: Император Парижа / L'Empereur de Paris
Год выпуска: 2018
Страна: Франция
Жанр: приключения, история
Продолжительность: 02:00:05
Перевод:

Дублированный | iTunes
Профессиональный (многоголосый) | HDRezka Studio

Субтитры: Английские

Режиссер: Жан-Франсуа Рише

rating

В ролях: Ольга Куриленко, Венсан Кассель, Фрейя Мавор, Аугуст Диль, Дени Меноше, Дени Лаван, Фабрис Лукини, Уилльям Скьортино, Джеймс Тьерре, Патрик Шене

Описание: Правдивая история французского преступника XIX века Эжена Франсуа Видока, который переходил из тюрьмы в тюрьму и менял профессию за профессией, пока не нашёл себя на полицейской службе. Он основал и возглавил первый в мире отдел национальной безопасности, где проработал двадцать лет. Выйдя в отставку, Видок стал частным детективом.

Качество: BD Remux 1080p
Формат: MKV

Видео: MPEG-4 AVC, 36 Мбит/с, 1920x1080
Аудио: Русский (AC3, 6 ch, 448 Кбит/с)
Аудио: Русский (AC3, 2 ch, 192 Кбит/с)
Аудио: французский (DTS-HD MA, 6 ch, 3507 Кбит/с)
скриншот  скриншот  скриншот  

скриншот  скриншот  скриншот  

General
Complete name :\Видок_Охотник на призраков_L'Empereur de Paris (2018) BDRemux.H.264.1080p.NNMClub.mkv
Format : Matroska
Format version : Version 4
File size : 32.4 GiB
Duration : 2 h 0 min
Overall bit rate mode : Variable
Overall bit rate : 38.6 Mb/s
Movie name : Видок_Охотник на призраков_L'Empereur de Paris (2018) BDRemux.H.264.1080p.NNMClub
Encoded date : UTC 2019-08-25 04:34:17
Writing application : mkvmerge v36.0.0 ('Is That Jazz?') 64-bit
Writing library : libebml v1.3.9 + libmatroska v1.5.2

Video
ID : 1
Format : AVC
Format/Info : Advanced Video Codec
Format profile : High@L4.1
Format settings : CABAC / 3 Ref Frames
Format settings, CABAC : Yes
Format settings, Reference frames : 3 frames
Codec ID : V_MPEG4/ISO/AVC
Duration : 2 h 0 min
Bit rate mode : Variable
Bit rate : 36.0 Mb/s
Maximum bit rate : 38.0 Mb/s
Width : 1 920 pixels
Height : 1 080 pixels
Display aspect ratio : 16:9
Frame rate mode : Constant
Frame rate : 23.976 (24000/1001) FPS
Color space : YUV
Chroma subsampling : 4:2:0
Bit depth : 8 bits
Scan type : Progressive
Bits/(Pixel*Frame) : 0.724
Stream size : 28.9 GiB (89%)
Title : Видок_Охотник на призраков_L'Empereur de Paris (2018) BDRemux.H.264.1080p.NNMClub
Writing library : x264 core 146 r2538 121396c
Encoding settings : cabac=1 / ref=4 / deblock=1:-1:-1 / analyse=0x3:0x133 / me=umh / subme=10 / psy=1 / psy_rd=1.00:0.15 / mixed_ref=1 / me_range=24 / chroma_me=1 / trellis=2 / 8x8dct=1 / cqm=0 / deadzone=21,11 / fast_pskip=1 / chroma_qp_offset=-3 / threads=48 / lookahead_threads=4 / sliced_threads=0 / slices=4 / nr=0 / decimate=1 / interlaced=0 / bluray_compat=1 / constrained_intra=0 / bframes=3 / b_pyramid=1 / b_adapt=2 / b_bias=0 / direct=3 / weightb=1 / open_gop=1 / weightp=1 / keyint=24 / keyint_min=1 / scenecut=40 / intra_refresh=0 / rc_lookahead=24 / rc=2pass / mbtree=1 / bitrate=36000 / ratetol=1.0 / qcomp=0.60 / qpmin=0 / qpmax=69 / qpstep=4 / cplxblur=20.0 / qblur=0.5 / vbv_maxrate=38000 / vbv_bufsize=30000 / nal_hrd=vbr / filler=0 / ip_ratio=1.40 / aq=1:1.00
Language : French
Default : No
Forced : No
Color range : Limited
Color primaries : BT.709
Transfer characteristics : BT.709
Matrix coefficients : BT.709

Audio #1
ID : 2
Format : AC-3
Format/Info : Audio Coding 3
Commercial name : Dolby Digital
Codec ID : A_AC3
Duration : 2 h 0 min
Bit rate mode : Constant
Bit rate : 384 kb/s
Channel(s) : 6 channels
Channel layout : L R C LFE Ls Rs
Sampling rate : 48.0 kHz
Frame rate : 31.250 FPS (1536 SPF)
Bit depth : 16 bits
Compression mode : Lossy
Stream size : 330 MiB (1%)
Title : Дублированный (iTunes)
Language : Russian
Service kind : Complete Main
Default : Yes
Forced : No

Audio #2
ID : 3
Format : AC-3
Format/Info : Audio Coding 3
Commercial name : Dolby Digital
Codec ID : A_AC3
Duration : 2 h 0 min
Bit rate mode : Constant
Bit rate : 192 kb/s
Channel(s) : 2 channels
Channel layout : L R
Sampling rate : 48.0 kHz
Frame rate : 31.250 FPS (1536 SPF)
Bit depth : 16 bits
Compression mode : Lossy
Stream size : 165 MiB (0%)
Title : MVO HDrezka Studio
Language : Russian
Service kind : Complete Main
Default : No
Forced : No

Audio #3
ID : 4
Format : DTS XLL
Format/Info : Digital Theater Systems
Commercial name : DTS-HD Master Audio
Codec ID : A_DTS
Duration : 2 h 0 min
Bit rate mode : Variable
Bit rate : 3 507 kb/s
Channel(s) : 6 channels
Channel layout : C L R Ls Rs LFE
Sampling rate : 48.0 kHz
Frame rate : 93.750 FPS (512 SPF)
Bit depth : 24 bits
Compression mode : Lossless
Stream size : 2.94 GiB (9%)
Language : French
Default : No
Forced : No

Text
ID : 5
Format : UTF-8
Codec ID : S_TEXT/UTF8
Codec ID/Info : UTF-8 Plain Text
Duration : 1 h 51 min
Bit rate : 37 b/s
Count of elements : 1075
Stream size : 31.1 KiB (0%)
Language : English
Default : No
Forced : No

Menu
00:00:00.000 : en:Chapter 01
00:10:12.821 : en:Chapter 02
00:19:20.493 : en:Chapter 03
00:30:27.325 : en:Chapter 04
00:41:02.293 : en:Chapter 05
00:54:33.020 : en:Chapter 06
01:06:07.338 : en:Chapter 07
01:15:48.335 : en:Chapter 08
01:23:11.778 : en:Chapter 09
01:32:59.240 : en:Chapter 10
01:42:15.504 : en:Chapter 11
01:54:05.213 : en:Chapter 12

pb.wtf



Скачать Видок: Охотник на призраков через торрент https://i110.fastpic.ru/big/2019/0613/a2/c0c90a3ba60f00044473efc6ea5e4ea2.jpg Скачать фильм Видок: Охотник на призраков через торрент бесплантно в хорошем качестве Описание: Правдивая история французского преступника XIX века Эжена Франсуа Видока, который переходил из тюрьмы в тюрьму и менял профессию ... 10 10 5
Торрент: Зарегистрирован [2019-08-25 09:17] · скачан: 59 раз
Статус: √ проверено
Размер: 32.36 GB
Как cкачать? Как скачать Видок: Охотник на призраков через торрент | qTorrent

28-11-2019 20:33  

Отключить всю рекламу на сайте

25-08-2019 10:36 Видок: Охотник на призраков Скачать торрент  

Видок который был мистикой мне нравится большеpb.wtf



    Дорогой пользователь! Огромная просьба, поблагодарите релизера, оцените раздачу и оставьте свои комментарий, если Вы скачали Видок: Охотник на призраков через торрент бесплатно! Внесите свою лепту в развитие PiratBit!
    Комментировать посты могут только пользователи прошедшие не сложную регистрацию
    Показать сообщения:    

    Видок: Охотник на призраков через торрент
    Скачать бесплатно Видок: Охотник на призраков
    Видок: Охотник на призраков скачать торрент
    Видок: Охотник на призраков смотреть онлайн
    Cкачать фильм Видок: Охотник на призраков бесплатно
    Видок: Охотник на призраков скачать торрент в хорошем качестве
    Видок: Охотник на призраков смотреть онлайн бесплатно в хорошем качестве


    Вы не можете начинать темы
    Вы не можете отвечать на сообщения
    Вы не можете редактировать свои сообщения
    Вы не можете удалять свои сообщения
    Вы не можете голосовать в опросах
    Вы не можете прикреплять файлы к сообщениям
    Вы можете скачивать файлы