новый адрес пиратбит piratbit
Мега распродажа FORZA HORIZON 4 ULTIMATE+ВСЕ DLC+ОНЛАЙН всего за 499р. 349 руб. (супер цена). Внимание количество ограничено!!!

iTunes

1+1

iTunes

мы

iTunes

1

iTunes

Чернобыль

iTunes

Ральф против интернета

Лицензия

ПШазам

Лицензия

Игра престолов

Лицензия

30
pack

ВАЖНО

!!Акция!!

Alien_RageХит недели

RePack

Resident Evil 21

ИГРА 18+

pack

RePack

Metro:Exodus

!!Акция!!

Alien_Rage

RePack

fifa19

RePack

Assassins Creed: Odyssey

RePack

NEED FOR SPEED™ PAYBACK

3 сезон

9 сезон

Бесстыжие 9 сезон

Все сериалы

все сериалы на PB.wtf

RePack

FAR CRY 5
Ребята, катастрофически не хватает 1900р. для оплаты серверов за Октябрь (всвязи с блокировками трафик упал в 3 раза), 1-2р., выручайте.
  

Такси, прицеп и коррида / Taxi, Roulotte et Corrida (Андре Юнебелль) [1958, комедия, BDRip 1080p by msltel] 2 x MVO pb.wtf

Такси, прицеп и коррида через торрент pb.wtf

Размер: 9.5 GB | Добавлен: 2 мес. 20 д. назад | Торрент скачан:3 раза
Скачать  

25-08-2019 10:30 Такси, прицеп и коррида Скачать торрент  

Название: Такси, прицеп и коррида
Оригинальное название: Taxi, Roulotte et Corrida
Год выпуска: 1958
Страна: Франция
Жанр: комедия
Продолжительность: 01:25:47
Перевод: закадровый многоголосый

Режиссер: Андре Юнебелль
В ролях: Луи де Фюнес, Раймон Бюссьер, Аннет Пуавр, Гай Бертил, Жак Динам, Полетт Дюбо, Жак Бертранд, Луи Бюжетт, Жак Дюфило, Марк Эйро, Марио Пилар, Пипо, Трио Сервантес Де Ла Пуэрта Дел Сол, Люс Фабиоль, Бернар Мюссон

О фильме: Морис Бергер, заядлый водитель парижского такси, решил провести свой отдых вместе с семьей вдали от Парижа в Испании. Чтобы время проходило не просто так, решил он со своим свояком Леоном прихватить табачку, попрятав его в сменные носки. Осталось провести всё это добро через таможню, где Морис встречает очаровательную блондинку Вирьям. Она же, контрабандой, пытается провести через границу краденный бриллиант стоимостью 100 миллионов франков. Заметив неладное, Вирьям подсовывает этот камень в пиджак Морису. С этого момента начинается охота за пиджаком Мориса, который абсолютно ничего не подозревает...



Качество: BDRip 1080p
Формат: MKV
Видео: MPEG-4 AVC, 14.6 Mбит/с, 1792x1076
Аудио 1: русский, AC3, 256 kbps, 2 ch, 48 kHz [закадровый многоголосый, Инис по заказу СоюзВидео]
Аудио 2: русский, AC3, 192 kbps, 2 ch, 48 kHz [закадровый многоголосый, 5 Канал СПб]
Аудио 3: французский, DTS, 768 kbps, 2 ch, 48 kHz [оригинал]
Главы/чаптеры
Общее
Уникальный идентификатор : 185070206762323980684618400211331144742 (0x8B3B39AD601EA2909630F01AEC1B5C26)
Полное имя : D:\Video\Такси, прицеп и коррида.1958.BDRip 1080p by msltel.mkv
Формат : Matroska
Версия формата : Version 4
Размер файла : 9,50 Гбайт
Продолжительность : 1 ч. 25 м.
Общий поток : 15,9 Мбит/сек
Название фильма : Rip by msltel
Дата кодирования : UTC 2019-08-25 05:16:59
Программа кодирования : mkvmerge v8.2.0 ('World of Adventure') 64bit
Библиотека кодирования : libebml v1.3.1 + libmatroska v1.4.2

Видео
Идентификатор : 1
Формат : AVC
Формат/Информация : Advanced Video Codec
Профиль формата : High@L4.1
Настройки формата : CABAC / 4 Ref Frames
Параметр CABAC формата : Да
Параметр RefFrames формата : 4 кадра
Идентификатор кодека : V_MPEG4/ISO/AVC
Продолжительность : 1 ч. 25 м.
Битрейт : 14,6 Мбит/сек
Ширина : 1792 пикселя
Высота : 1076 пикселей
Соотношение сторон : 5:3
Режим частоты кадров : Постоянный
Частота кадров : 23,976 (24000/1001) кадра/сек
Цветовое пространство : YUV
Субдискретизация насыщенности : 4:2:0
Битовая глубина : 8 бит
Тип развёртки : Прогрессивная
Бит/(Пиксели*Кадры) : 0.317
Размер потока : 8,77 Гбайт (92%)
Библиотека кодирования : x264 core 157 r2935 545de2f
Настройки программы : cabac=1 / ref=4 / deblock=1:-2:-2 / analyse=0x3:0x113 / me=umh / subme=11 / psy=1 / psy_rd=1.00:0.15 / mixed_ref=1 / me_range=32 / chroma_me=1 / trellis=2 / 8x8dct=1 / cqm=0 / deadzone=21,11 / fast_pskip=0 / chroma_qp_offset=-3 / threads=6 / lookahead_threads=1 / sliced_threads=0 / nr=0 / decimate=1 / interlaced=0 / bluray_compat=0 / constrained_intra=0 / bframes=6 / b_pyramid=2 / b_adapt=2 / b_bias=0 / direct=1 / weightb=1 / open_gop=0 / weightp=2 / keyint=230 / keyint_min=23 / scenecut=40 / intra_refresh=0 / rc_lookahead=40 / rc=crf / mbtree=1 / crf=20.0 / qcomp=0.60 / qpmin=0 / qpmax=69 / qpstep=4 / vbv_maxrate=50000 / vbv_bufsize=62500 / crf_max=0.0 / nal_hrd=none / filler=0 / ip_ratio=1.40 / aq=1:1.00
Язык : French
Default : Да
Forced : Нет

Аудио #1
Идентификатор : 2
Формат : AC-3
Формат/Информация : Audio Coding 3
Коммерческое название : Dolby Digital
Идентификатор кодека : A_AC3
Продолжительность : 1 ч. 25 м.
Вид битрейта : Постоянный
Битрейт : 256 Кбит/сек
Каналы : 2 канала
ChannelLayout : L R
Частота : 48,0 КГц
Частота кадров : 31,250 кадров/сек (1536 SPF)
Битовая глубина : 16 бит
Метод сжатия : С потерями
Размер потока : 157 Мбайт (2%)
Заголовок : MVO Инис по заказу СоюзВидео
Язык : Russian
ServiceKind/String : Complete Main
Default : Да
Forced : Нет

Аудио #2
Идентификатор : 3
Формат : AC-3
Формат/Информация : Audio Coding 3
Коммерческое название : Dolby Digital
Идентификатор кодека : A_AC3
Продолжительность : 1 ч. 25 м.
Вид битрейта : Постоянный
Битрейт : 192 Кбит/сек
Каналы : 2 канала
ChannelLayout : L R
Частота : 48,0 КГц
Частота кадров : 31,250 кадров/сек (1536 SPF)
Битовая глубина : 16 бит
Метод сжатия : С потерями
Размер потока : 118 Мбайт (1%)
Заголовок : MVO 5 Канал СПб
Язык : Russian
ServiceKind/String : Complete Main
Default : Нет
Forced : Нет

Аудио #3
Идентификатор : 4
Формат : DTS
Формат/Информация : Digital Theater Systems
Идентификатор кодека : A_DTS
Продолжительность : 1 ч. 25 м.
Вид битрейта : Постоянный
Битрейт : 768 Кбит/сек
Каналы : 2 канала
ChannelLayout : L R
Частота : 48,0 КГц
Частота кадров : 93,750 кадра/сек (512 SPF)
Битовая глубина : 24 бит
Метод сжатия : С потерями
Размер потока : 471 Мбайт (5%)
Заголовок : original
Язык : French
Default : Нет
Forced : Нет

Меню
00:00:00.000 : en:Chapter 1
00:09:27.984 : en:Chapter 2
00:13:54.500 : en:Chapter 3
00:21:22.030 : en:Chapter 4
00:30:54.185 : en:Chapter 5
00:39:12.308 : en:Chapter 6
00:45:26.974 : en:Chapter 7
00:55:59.105 : en:Chapter 8
00:59:57.594 : en:Chapter 9
01:08:45.871 : en:Chapter 10
01:15:55.592 : en:Chapter 11
01:23:57.699 : en:Chapter 12
pb.wtf



Скачать Такси, прицеп и коррида через торрент https://c.radikal.ru/c38/1908/34/4d9366470b29.jpg Скачать фильм Такси, прицеп и коррида через торрент бесплантно в хорошем качестве О фильме: Морис Бергер, заядлый водитель парижского такси, решил провести свой отдых вместе с семьей вдали от Парижа в Испании. Чтобы время ... 5 10 1
Info! Золотая раздача, скачанное не засчитывается.
Торрент: Зарегистрирован [2019-08-25 10:30] · скачан: 3 раз
Статус: √ проверено
Размер: 9.5 GB
Как cкачать? Как скачать Такси, прицеп и коррида через торрент | qTorrent

% Раздел Тема Автор DL S | L
Классика зарубежного кино [ 3.85 GB ] Такси прицеп и коррида / Taxi Roulotte et Corrida [1958 BDRip 720p by msltel] 2 x MVO msltel Скачать
1 | 0


>> Регистрируемся здесь <<






Отзывы и комментарии о схеме читаем и пишем здесь: ---> Отзывы и комментарии о схеме

Новые благодарочки в телеграм довольных пользователей:
скриншот   скриншот   скриншот   скриншот   скриншот

25-08-2019 11:10 Такси, прицеп и коррида Скачать торрент  

Топик был перенесен из форума Фильмы [HD 720p, 1080p] (Хороший звук DUB, MVO) в форум Классика зарубежного кино


bober100pb.wtf



    Дорогой пользователь! Огромная просьба, поблагодарите релизера, оцените раздачу и оставьте свои комментарий, если Вы скачали Такси, прицеп и коррида через торрент бесплатно! Внесите свою лепту в развитие PiratBit!
    Комментировать посты могут только пользователи прошедшие не сложную регистрацию
    Показать сообщения:    

    Такси, прицеп и коррида через торрент
    Скачать бесплатно Такси, прицеп и коррида
    Такси, прицеп и коррида скачать торрент
    Такси, прицеп и коррида смотреть онлайн
    Cкачать фильм Такси, прицеп и коррида бесплатно
    Такси, прицеп и коррида скачать торрент в хорошем качестве
    Такси, прицеп и коррида смотреть онлайн бесплатно в хорошем качестве


    Вы не можете начинать темы
    Вы не можете отвечать на сообщения
    Вы не можете редактировать свои сообщения
    Вы не можете удалять свои сообщения
    Вы не можете голосовать в опросах
    Вы не можете прикреплять файлы к сообщениям
    Вы можете скачивать файлы