Доктор Стрэндж

Лицензия

Добыча

MVO

Дом дракона

1 сезон

Тор

Лицензия

Мэверик

Лицензия

Там, где раки поют

MVO

Властелин колец

1 сезон

Ultimate

pack

Рекомендуем

30

Repack

ВАЖНО

ВАЖНО

Ghostwire

RePack

jed

RePack

nioh2

RePack

RDR2

RePack

NEED FOR SPEED™ PAYBACK

RePack

скачать торрент

Кинопоиск HD

Острые козырьки 6 сезон

6 сезон

FAR CRY 6

RePack

скачать торрент

Лицензия

скачать торрент

MVO

1

1 сезон

скачать торрент

1 сезон

скачать торрент

Лицензия

  

Есть нюансы / Сезон: 1 / Серии: 1-8 из 8 (Александр Колесник (II) [2019, Комедия, SATRip]

Есть нюансы через торрент pb.wtf

Размер: 3.91 GB | Добавлен: 3 года 1 мес. назад | Торрент скачан:45 раз
Смотреть онлайн | Скачать   

25-08-2019 10:45 Есть нюансы Скачать торрент  

Есть нюансы
Год выпуска: 2019
Страна: Россия
Жанр: Комедия
Продолжительность: ~ 00:37:00
Субтитры: отсутствуют

Режиссер: Александр Колесник (II)



В ролях: Валерий Кухарешин, Евгения Свиридова, Екатерина Зорина, Андрей Полищук, Андрей Зайцев (II), Юрий Жаравин, Ян Решетников, Евгений Волошин, Роман Перелыгин, Илья Тиунов

Описание: «Синий чулок» - библиотекарь Спичкина, замученные семейным бытом супруги Чепиковы, горе-бизнесмен, авантюрист Бондаренко, приговоренный к домашнему аресту в глухой деревне. Что объединяет всех этих людей? Только одно – сеансы у экстравагантного психолога Александра Сергеевича. Удивить его довольно трудно – скорее, он постоянно удивляет своих пациентов. Но опытный психолог знает – у каждого, даже самого обычного человека, ЕСТЬ свои НЮАНСЫ.

Качество: SATRip
Формат: AVI

Видео: XviD, ~ 1800 Кбит/с, 720x400
Аудио: MP3, 2 ch, 128 Кбит/с
скриншот  скриншот  скриншот  скриншот  

Общее
Полное имя : C:\Есть.Нюансы.XviD.2019.SATRip\01.Есть.Нюансы.avi
Формат : AVI
Формат/Информация : Audio Video Interleave
Размер файла : 534 Мбайт
Продолжительность : 38 м. 30 с.
Общий поток : 1938 Кбит/сек
Программа кодирования : VirtualDubMod 1.5.10.3 | www.virtualdub-fr.org || (build 2550/release)
Библиотека кодирования : VirtualDubMod build 2550/release

Видео
Идентификатор : 0
Формат : MPEG-4 Visual
Профиль формата : Advanced [email protected]
Настройки формата : BVOP2
Параметр BVOP формата : 2
Параметр QPel формата : Нет
Параметр GMC формата : Без точки перехода
Параметр матрицы формата : Default (H.263)
Идентификатор кодека : XVID
Идентификатор кодека/Подсказка : XviD
Продолжительность : 38 м. 30 с.
Битрейт : 1800 Кбит/сек
Ширина : 720 пикселей
Высота : 400 пикселей
Соотношение сторон : 16:9
Частота кадров : 25,000 кадров/сек
Цветовое пространство : YUV
Субдискретизация насыщенности : 4:2:0
Битовая глубина : 8 бит
Тип развёртки : Прогрессивная
Метод сжатия : С потерями
Бит/(Пиксели*Кадры) : 0.250
Размер потока : 496 Мбайт (93%)
Библиотека кодирования : XviD 1.2.1 (UTC 2008-12-04)

Аудио
Идентификатор : 1
Формат : MPEG Audio
Версия формата : Version 1
Профиль формата : Layer 3
Настройки формата : Joint stereo / MS Stereo
Идентификатор кодека : 55
Идентификатор кодека/Подсказка : MP3
Продолжительность : 38 м. 30 с.
Вид битрейта : Постоянный
Битрейт : 128 Кбит/сек
Каналы : 2 канала
Частота : 48,0 КГц
Частота кадров : 41,667 кадра/сек (1152 SPF)
Метод сжатия : С потерями
Размер потока : 35,3 Мбайт (7%)
Выравнивание : Соединение по промежуткам
Продолжительность промежутка : 40 мс. (1,00 видеокадр)
Время предзагрузки промежутка : 504 мс.
Библиотека кодирования : LAME3.99r
Настройки программы : -m j -V 4 -q 9 -lowpass 17 -b 128




Скачать Есть нюансы через торрент https://b.radikal.ru/b42/1908/4c/9da09aa59829.jpg Скачать, смотреть онлайн Есть нюансы бесплантно в хорошем качестве Описание: «Синий чулок» - библиотекарь Спичкина, замученные семейным бытом супруги Чепиковы, горе-бизнесмен, авантюрист Бондаренко, ... 10 10 4
Торрент: Зарегистрирован [2019-08-25 10:45] · скачан: 45 раз
Статус: √ проверено
Размер: 3.91 GB
Как cкачать? Как скачать Есть нюансы через торрент | UTorrent

% Раздел Тема Автор DL S | L
Наши сериалы [ 3.77 GB ] Есть нюансы / Сезон: 1 / Серии: 1-8 из 8 | | DLRip bober100 Скачать
1 | 0
Наши сериалы [ 6.73 GB ] Есть нюансы / Сезон: 1 / Серии: 1-8 из 8 | | 1080p bober100 Скачать
1 | 0
Наши сериалы [ 3.75 GB ] Есть нюансы / Сезон: 1 / Серии: 1-8 из 8 | | WEBRip-AVC bober100 Скачать
1 | 0

28-11-2019 20:33  


Отключить вcю реклaмy на сайте, в т.ч. и в плеере онлайн просмотра!

    Дорогой пользователь! Огромная просьба, поблагодарите релизера, оцените раздачу и оставьте свои комментарий, если Вы скачали Есть нюансы через торрент бесплатно!!
    Комментировать посты могут только пользователи прошедшие не сложную регистрацию
    Показать сообщения:    


    Есть нюансы через торрент
    Скачать бесплатно Есть нюансы
    Есть нюансы скачать торрент
    Есть нюансы смотреть онлайн
    Cкачать фильм Есть нюансы бесплатно
    Есть нюансы скачать торрент в хорошем качестве
    Есть нюансы смотреть онлайн бесплатно в хорошем качестве
    Вы не можете начинать темы
    Вы не можете отвечать на сообщения
    Вы не можете редактировать свои сообщения
    Вы не можете удалять свои сообщения
    Вы не можете голосовать в опросах
    Вы не можете прикреплять файлы к сообщениям
    Вы можете скачивать файлы