2 сезон

iTunes

MVO

1

2 сезон

iTunes

iTunes

1 сезон

RePack

30

Новинка

ВАЖНО

ИГРА 18+

pack

RePack

MK11
pack

Легкие деньги

RePack

jed

RePack

fifa19

RePack

RDR2

RePack

NEED FOR SPEED™ PAYBACK

4 сезон

9 сезон

Бесстыжие 9 сезон

Все сериалы

все сериалы на PB.wtf

RePack

FAR CRY 5

Anonymous, доброй ночи, мы не успеваем собрать деньги на оплату серверов за декабрь и январь, помогите нам пожалуйста в это трудное время. В качестве благодарности мы отключим Вам всю рекламу на сайте (укажите свой ник в строку Ваше имя)!

×
  
Magnet ссылка

Паприка / Paprika (Тинто Брасс) [1990, драма, BDRip - HEVC 1080p 10 bit 60 FPS] Профессиональный [одноголосый] pb.wtf

Паприка через торрент pb.wtf

Раздают: 1 [ 0 KB/s ]
Размер: 3.56 GB | Добавлен: 1 год 4 мес. назад | Торрент скачан:176 раз
Скачать  

25-08-2019 11:48 Паприка Скачать торрент  


««Tinto Brass re-opens the closed houses!»»

Год выпуска: 1990
Страна: Италия
Жанр: драма,
Продолжительность: 01:55:51
Перевод: Профессиональный [одноголосый]
Субтитры: русские.
Режиссер: Тинто Брасс
В ролях:

Дебора Каприольо (Paprika), Стефан Феррара (Rocco), Мартина Брошар (Madame Collette), Стефани Бонне (Franco), Россана Гавинель (Gina), Ренцо Ринальди (Conte Bastiano), Нина Солдано (Giornalista), Клара Альгранти (Sciura Angelina), Лучана Чиренеи (Donna Olimpia), Джон Стайнер (Principe Ascanio), Валентина Деми (Beba), Луиджи Лаэцца (Nino)
Описание:
Желая помочь своему жениху, Мима решает подзаработать в публичном доме. Наивная и рискованная затея вовлекает Миму в цепь эротических приключений, из которой не так-то легко выбраться. Но жених обманул ее и скрылся. Тогда девушка решает сделать свое временное занятие профессией всей жизни. Мима, за свой горячий нрав и необузданную чувственность прозванная Паприкой, кочует из борделя в бордель, и однажды судьба делает девушке роскошный подарок в лице эксцентричного аристократа, предложившего ей руку и сердце...
Мировая премьера: 13 февраля 1991

Качество: BDRip 1080p Rip by DD2D3
Исходник: BDRemux
Формат: MKV
Видео: V_MPEGH/ISO/HEVC, 1920x1080 (16:9), 4002 kbps, 59,940 fps, 0,032 bpp
Аудио №1: русский / AC3 / 2.0 / 48 kHz / 192 kbps / ||
Аудио №2: английский / AC3 / 2.0 / 48 kHz / 192 kbps /



Общее
Уникальный идентификатор : 249438391917372033474550871437442169116 (0xBBA8163A5125FC69A30AC3B9B76E391C)
Полное имя : D:\Паприка - Paprika (1995) BDRip - HEVC 1080p 10 bit 60 FPS.mkv
Формат : Matroska
Версия формата : Version 4
Размер файла : 3,56 Гбайт
Продолжительность : 1 ч. 55 м.
Общий поток : 4396 Кбит/сек
Название фильма : Rip by DD2D3
Дата кодирования : UTC 2019-08-25 11:23:08
Программа кодирования : mkvmerge v10.0.0 ('To Drown In You') 32bit
Библиотека кодирования : libebml v1.3.4 + libmatroska v1.4.5
Attachments : poster

Видео
Идентификатор : 1
Формат : HEVC
Формат/Информация : High Efficiency Video Coding
Профиль формата : Main 10@L4.1@Main
Идентификатор кодека : V_MPEGH/ISO/HEVC
Продолжительность : 1 ч. 55 м.
Битрейт : 4003 Кбит/сек
Ширина : 1920 пикселей
Высота : 1080 пикселей
Соотношение сторон : 16:9
Режим частоты кадров : Постоянный
Частота кадров : 59,940 (60000/1001) кадров/сек
Цветовое пространство : YUV
Субдискретизация насыщенности : 4:2:0
Битовая глубина : 10 бит
Бит/(Пиксели*Кадры) : 0.032
Размер потока : 3,24 Гбайт (91%)
Библиотека кодирования : x265 2.3+33-0b7d54dbb71a87a0:[Windows][MSVC 1800][64 bit] 10bit: KG7x [x265.ru]
Настройки программы : cpuid=1173503 / frame-threads=2 / numa-pools=4 / wpp / no-pmode / no-pme / no-psnr / no-ssim / log-level=2 / input-csp=1 / input-res=1920x1080 / interlace=0 / total-frames=416656 / level-idc=41 / high-tier=1 / uhd-bd=0 / ref=3 / no-allow-non-conformance / no-repeat-headers / annexb / no-aud / no-hrd / info / hash=0 / no-temporal-layers / open-gop / min-keyint=25 / keyint=250 / bframes=4 / b-adapt=2 / b-pyramid / bframe-bias=0 / rc-lookahead=20 / lookahead-slices=6 / scenecut=40 / no-intra-refresh / ctu=64 / min-cu-size=8 / no-rect / no-amp / max-tu-size=32 / tu-inter-depth=1 / tu-intra-depth=1 / limit-tu=0 / rdoq-level=0 / dynamic-rd=0.00 / no-ssim-rd / signhide / no-tskip / nr-intra=0 / nr-inter=0 / no-constrained-intra / strong-intra-smoothing / max-merge=2 / limit-refs=3 / no-limit-modes / me=1 / subme=2 / merange=57 / temporal-mvp / weightp / no-weightb / no-analyze-src-pics / deblock=0:0 / no-sao / no-sao-non-deblock / rd=3 / no-early-skip / no-rskip / no-fast-intra / no-tskip-fast / no-cu-lossless / no-b-intra / rdpenalty=0 / psy-rd=4.00 / psy-rdoq=0.00 / no-rd-refine / analysis-mode=0 / no-lossless / cbqpoffs=0 / crqpoffs=0 / rc=abr / bitrate=4000 / qcomp=0.60 / qpstep=1 / stats-write=0 / stats-read=2 / cplxblur=20.0 / qblur=0.5 / ipratio=1.10 / pbratio=1.00 / aq-mode=0 / aq-strength=0.00 / no-cutree / zone-count=0 / no-strict-cbr / qg-size=64 / rc-grain / qpmax=69 / qpmin=0 / sar=1 / overscan=0 / videoformat=5 / range=0 / colorprim=2 / transfer=2 / colormatrix=2 / chromaloc=0 / display-window=0 / max-cll=0,0 / min-luma=0 / max-luma=1023 / log2-max-poc-lsb=8 / vui-timing-info / vui-hrd-info / slices=1 / opt-qp-pps / opt-ref-list-length-pps / no-multi-pass-opt-rps / scenecut-bias=0.05 / no-opt-cu-delta-qp / no-aq-motion / no-hdr / no-hdr-opt / refine-level=5 / no-limit-sao
Default : Да
Forced : Нет

Аудио #1
Идентификатор : 2
Формат : AC-3
Формат/Информация : Audio Coding 3
Коммерческое название : Dolby Digital
Идентификатор кодека : A_AC3
Продолжительность : 1 ч. 55 м.
Вид битрейта : Постоянный
Битрейт : 192 Кбит/сек
Каналы : 2 канала
Channel layout : L R
Частота : 48,0 КГц
Частота кадров : 31,250 кадров/сек (1536 SPF)
Битовая глубина : 16 бит
Метод сжатия : С потерями
Размер потока : 159 Мбайт (4%)
Язык : Russian
ServiceKind/String : Complete Main
Default : Да
Forced : Нет

Аудио #2
Идентификатор : 3
Формат : AC-3
Формат/Информация : Audio Coding 3
Коммерческое название : Dolby Digital
Идентификатор кодека : A_AC3
Продолжительность : 1 ч. 55 м.
Вид битрейта : Постоянный
Битрейт : 192 Кбит/сек
Каналы : 2 канала
Channel layout : L R
Частота : 48,0 КГц
Частота кадров : 31,250 кадров/сек (1536 SPF)
Битовая глубина : 16 бит
Метод сжатия : С потерями
Размер потока : 159 Мбайт (4%)
Язык : English
ServiceKind/String : Complete Main
Default : Нет
Forced : Нет

Текст
Идентификатор : 4
Формат : PGS
Режим смешивания : zlib
Идентификатор кодека : S_HDMV/PGS
Идентификатор кодека/Информация : Picture based subtitle format used on BDs/HD-DVDs
Продолжительность : 1 ч. 54 м.
Битрейт : 4885 бит/сек
ElementCount : 1892
Размер потока : 3,99 Мбайт (0%)
Язык : Russian
Default : Да
Forced : Нет
скриншот  скриншот  скриншот  скриншот  скриншот  

© Оформление by DD2D3 pb.wtf



Скачать Паприка через торрент https://funkyimg.com/i/2WtBx.jpg Скачать фильм Паприка через торрент бесплантно в хорошем качестве Описание: Желая помочь своему жениху, Мима решает подзаработать в публичном доме. Наивная и рискованная затея вовлекает Миму в цепь ... 10 10 2
Info! Золотая раздача, скачанное не засчитывается.
Торрент: Зарегистрирован [2019-08-25 11:48] · скачан: 176 раз
Статус: √ проверено
Размер: 3.56 GB
Как cкачать? Как скачать Паприка через торрент | UTorrent

% Раздел Тема Автор DL S | L
Фильмы с авторской озвучкой [ 2.18 GB ] Паприка / Paprika [1991 эротика BDRip] AVO Леонид Ильич Скачать
1 | 0
Порно фильмы с русским переводом [ 1.65 GB ] Паприка. / Paprika / Paprika: the Last Italian Whore / Anal Paprika. [1995 Feature European Classic Couples Anal A2M. DVDRip одноголосый] Pir@tya2010 Скачать
1 | 0
Эротические и Документальные фильмы [ 2.03 GB ] Паприка / Paprika [1990 Эротика DVDRip-AVC двухголосый] alexybuzich Скачать
1 | 0

28-11-2019 20:33  

Отключить всю рекламу на сайте

    Дорогой пользователь! Огромная просьба, поблагодарите релизера, оцените раздачу и оставьте свои комментарий, если Вы скачали Паприка через торрент бесплатно! Внесите свою лепту в развитие PiratBit!
    Комментировать посты могут только пользователи прошедшие не сложную регистрацию
    Показать сообщения:    

    Паприка через торрент
    Скачать бесплатно Паприка
    Паприка скачать торрент
    Паприка смотреть онлайн
    Cкачать фильм Паприка бесплатно
    Паприка скачать торрент в хорошем качестве
    Паприка смотреть онлайн бесплатно в хорошем качестве


    Вы не можете начинать темы
    Вы не можете отвечать на сообщения
    Вы не можете редактировать свои сообщения
    Вы не можете удалять свои сообщения
    Вы не можете голосовать в опросах
    Вы не можете прикреплять файлы к сообщениям
    Вы можете скачивать файлы