2 сезон

iTunes

MVO

1

2 сезон

iTunes

iTunes

1 сезон

RePack

30

Новинка

ВАЖНО

ИГРА 18+

pack

RePack

MK11
pack

Легкие деньги

RePack

jed

RePack

fifa19

RePack

RDR2

RePack

NEED FOR SPEED™ PAYBACK

4 сезон

9 сезон

Бесстыжие 9 сезон

Все сериалы

все сериалы на PB.wtf

RePack

FAR CRY 5

Anonymous, добрый вечер, мы не успеваем собрать деньги на оплату серверов за декабрь и январь, помогите нам пожалуйста в это трудное время. В качестве благодарности мы отключим Вам всю рекламу на сайте (укажите свой ник в строку Ваше имя)!

×
  
Magnet ссылка

Проект "Орфей" / Project Orpheus / Сезон: 1 / Серии: 1-12 из 12 (Аллард Вестенбринк, Деннис Ботс, Иван Лопез Нунье) [2016, Триллер, драма, WEB-DL 1080p] 2xMVO [Showjet, Кинопоказ HD1] pb.wtf

Проект "Орфей" через торрент pb.wtf

Размер: 21.14 GB | Добавлен: 1 год 4 мес. назад | Торрент скачан:15 раз
Скачать  

25-08-2019 15:58 Проект "Орфей" Скачать торрент  

Проект "Орфей" / Project Orpheus Год выпуска: 2016
Страна: Нидерланды
Жанр: Триллер, драма
Продолжительность: ~00:45:00

Перевод: Профессиональный (многоголосый закадровый) | Showjet
Перевод: Профессиональный (многоголосый закадровый) | Кинопоказ HD1

Оригинальная аудиодорожка: Нидерландский
Субтитры: Отсутствуют
Реклама: Отсутствует

Режиссёр: Аллард Вестенбринк, Деннис Ботс, Иван Лопез Нунье

В ролях: Лиза Смит, Стефани ван Лирсум, Тобиас Нироп, Виллем Воогд, Гай Ван Сэнд, Санне Лангелаар, Мандела Ви Ви, Майк Виртс, Али Бен Хорстинг, Ханс Дагелет ...

Описание: Пятеро лучших студентов-медиков получают уникальный шанс принять участие в элитной тренинг-программе, организованной выдающимся профессором в одной из лучших клиник страны. Вскоре герои обнаруживают, что их именитый наставник проводит чрезвычайно опасный научный эксперимент: погружает пациентов в состояние клинической смерти, после которой они возвращаются к жизни совершенно другими людьми…

Качество: WEB-DL 1080p
Контейнер: MKV

Видео: 1920x1080, 25.000 fps, MPEG-4 AVC, ~4486 kbps
Аудио Rus #1: AC3, 48.0 kHz, 3/2 (L,C,R,l,r) + LFE ch, 384 kbps | Showjet
Аудио Rus #2: AC3, 48.0 kHz, 2ch, 192 kbps | Кинопоказ HD1
Аудио Nld #3: AC3, 48.0 kHz, 3/2 (L,C,R,l,r) + LFE ch, 384 kbps


Картинка из онлайн-кинотеатра
Озвучка #1 из того же корытца что и видео….
Озвучка #2 из раздачи black.bart
Общее
Уникальный идентификатор : 126060155814971584683699610731169817449 (0x5ED64D8A0E564F1D9C0218FC6839A369)
Полное имя : F:\Project.Orpheus.S01.1080p.WEB-DL.H.264.Rus.Nld-@EniaHD\Project.Orpheus.S01E07.1080p.WEB-DL.H.264.Rus.Nld-@EniaHD.mkv
Формат : Matroska
Версия формата : Version 4
Размер файла : 1,79 Гбайт
Продолжительность : 46 м. 55 с.
Общий поток : 5449 Кбит/сек
Название фильма : Project.Orpheus.S01E07.1080p.WEB-DL.H.264-ParovozN@EniaHD
Дата кодирования : UTC 2019-08-23 22:13:00
Программа кодирования : mkvmerge v32.0.0 ('Astral Progressions') 32-bit
Библиотека кодирования : libebml v1.3.7 + libmatroska v1.5.0

Видео
Идентификатор : 1
Формат : AVC
Формат/Информация : Advanced Video Codec
Профиль формата : High@L4
Настройки формата : CABAC / 4 Ref Frames
Параметр CABAC формата : Да
Параметр RefFrames формата : 4 кадра
Идентификатор кодека : V_MPEG4/ISO/AVC
Продолжительность : 46 м. 55 с.
Битрейт : 4486 Кбит/сек
Ширина : 1920 пикселей
Высота : 1080 пикселей
Соотношение сторон : 16:9
Режим частоты кадров : Переменный
Частота кадров : 25,000 кадров/сек
Стандарт вещания : PAL
Цветовое пространство : YUV
Субдискретизация насыщенности : 4:2:0
Битовая глубина : 8 бит
Тип развёртки : Прогрессивная
Бит/(Пиксели*Кадры) : 0.087
Размер потока : 1,47 Гбайт (82%)
Default : Да
Forced : Нет
Цветовой диапазон : Limited
Основные цвета : BT.709
Характеристики трансфера : BT.709
Коэффициенты матрицы : BT.709

Аудио #1
Идентификатор : 2
Формат : AC-3
Формат/Информация : Audio Coding 3
Коммерческое название : Dolby Digital
Идентификатор кодека : A_AC3
Продолжительность : 46 м. 55 с.
Вид битрейта : Постоянный
Битрейт : 384 Кбит/сек
Каналы : 6 каналов
Channel layout : L R C LFE Ls Rs
Частота : 48,0 КГц
Частота кадров : 31,250 кадров/сек (1536 SPF)
Битовая глубина : 16 бит
Метод сжатия : С потерями
Размер потока : 129 Мбайт (7%)
Заголовок : MVO (Showjet)
Язык : Russian
ServiceKind/String : Complete Main
Default : Да
Forced : Нет

Аудио #2
Идентификатор : 3
Формат : AC-3
Формат/Информация : Audio Coding 3
Коммерческое название : Dolby Digital
Идентификатор кодека : A_AC3
Продолжительность : 46 м. 55 с.
Вид битрейта : Постоянный
Битрейт : 192 Кбит/сек
Каналы : 2 канала
Channel layout : L R
Частота : 48,0 КГц
Частота кадров : 31,250 кадров/сек (1536 SPF)
Битовая глубина : 16 бит
Метод сжатия : С потерями
Размер потока : 64,4 Мбайт (4%)
Заголовок : MVO (Кинопоказ HD1)
Язык : Russian
ServiceKind/String : Complete Main
Default : Нет
Forced : Нет

Аудио #3
Идентификатор : 4
Формат : AC-3
Формат/Информация : Audio Coding 3
Коммерческое название : Dolby Digital
Идентификатор кодека : A_AC3
Продолжительность : 46 м. 55 с.
Вид битрейта : Постоянный
Битрейт : 384 Кбит/сек
Каналы : 6 каналов
Channel layout : L R C LFE Ls Rs
Частота : 48,0 КГц
Частота кадров : 31,250 кадров/сек (1536 SPF)
Битовая глубина : 16 бит
Метод сжатия : С потерями
Размер потока : 129 Мбайт (7%)
Заголовок : Netherlands
Язык : German
ServiceKind/String : Complete Main
Default : Нет
Forced : Нет
pb.wtf



Скачать Проект "Орфей" через торрент https://funkyimg.com/i/2WtJf.jpg Скачать фильм Проект "Орфей" через торрент бесплантно в хорошем качестве Описание: Пятеро лучших студентов-медиков получают уникальный шанс принять участие в элитной тренинг-программе, организованной выдающимся ... 10 10 2
Торрент: Зарегистрирован [2019-08-25 15:58] · скачан: 15 раз
Статус: √ проверено
Размер: 21.14 GB
Как cкачать? Как скачать Проект "Орфей" через торрент | UTorrent

28-11-2019 20:33  

Отключить всю рекламу на сайте

    Дорогой пользователь! Огромная просьба, поблагодарите релизера, оцените раздачу и оставьте свои комментарий, если Вы скачали Проект "Орфей" через торрент бесплатно! Внесите свою лепту в развитие PiratBit!
    Комментировать посты могут только пользователи прошедшие не сложную регистрацию
    Показать сообщения:    

    Проект "Орфей" через торрент
    Скачать бесплатно Проект "Орфей"
    Проект "Орфей" скачать торрент
    Проект "Орфей" смотреть онлайн
    Cкачать фильм Проект "Орфей" бесплатно
    Проект "Орфей" скачать торрент в хорошем качестве
    Проект "Орфей" смотреть онлайн бесплатно в хорошем качестве


    Вы не можете начинать темы
    Вы не можете отвечать на сообщения
    Вы не можете редактировать свои сообщения
    Вы не можете удалять свои сообщения
    Вы не можете голосовать в опросах
    Вы не можете прикреплять файлы к сообщениям
    Вы можете скачивать файлы