2 сезон

iTunes

1 сезон

1

iTunes

iTunes

iTunes

1 сезон

RePack

30

ИГРА 18+

pack

ВАЖНО

!!Акция!!

Alien_RageХит недели

RePack

MK11
pack

Забери бонус

RePack

jed

!!Акция!!

Alien_Rage

RePack

fifa19

RePack

Assassins Creed: Odyssey

RePack

NEED FOR SPEED™ PAYBACK

4 сезон

9 сезон

Бесстыжие 9 сезон

Все сериалы

все сериалы на PB.wtf

RePack

FAR CRY 5
  

Рыжик / Серии: 1-4 из 4 (Артём Марков) [2019, Мелодрама, SATRip] pb.wtf

Рыжик через торрент pb.wtf

Размер: 2.37 GB | Добавлен: 1 год 2 мес. назад | Торрент скачан:51 раз
Скачать  

25-08-2019 18:52 Рыжик Скачать торрент  

Рыжик
Год выпуска: 2019
Страна: Беларусь
Жанр: Мелодрама
Продолжительность: ~ 00:45:00
Субтитры: отсутствуют

Режиссер: Артём Марков

В ролях: Александра Третьякова, Наталья Гудкова, Илья Алексеев, Эрик Абрамович, Арсений Ткаченко, Анатолий Голуб, Светлана Никифорова, Янина Малинчик, Мария Арнаут, Александра Змитрович

Описание: В маленьком поселке Тоня Рыжикова влюбляется без памяти в Евгения. По совету подруги Тоня приезжает к любимому в большой город. Однако на третий день знакомства Тоня опадает в тюрьму! Евгений оказывается наркоманом и во время рейда полиции в ночном клубе подбрасывает Тоне наркотики. Тоня не выдает любимого, берет всю вину на себя и получает тюремный срок – пять лет. В колонии она узнает, что беременна.

Качество: SATRip
Формат: AVI

Видео: XviD, ~ 1800 Кбит/с, 720x304
Аудио: MP3, 2 ch, 128 Кбит/с
скриншот  скриншот  скриншот  скриншот  

Общее
Полное имя : C:\Рыжик.XviD.2019.SATRip\01.Рыжик.avi
Формат : AVI
Формат/Информация : Audio Video Interleave
Размер файла : 620 Мбайт
Продолжительность : 44 м. 44 с.
Общий поток : 1938 Кбит/сек
Программа кодирования : VirtualDubMod 1.5.10.3 | www.virtualdub-fr.org || (build 2550/release)
Библиотека кодирования : VirtualDubMod build 2550/release

Видео
Идентификатор : 0
Формат : MPEG-4 Visual
Профиль формата : Advanced Simple@L5
Настройки формата : BVOP2
Параметр BVOP формата : 2
Параметр QPel формата : Нет
Параметр GMC формата : Без точки перехода
Параметр матрицы формата : Default (H.263)
Идентификатор кодека : XVID
Идентификатор кодека/Подсказка : XviD
Продолжительность : 44 м. 44 с.
Битрейт : 1800 Кбит/сек
Ширина : 720 пикселей
Высота : 304 пикселя
Соотношение сторон : 2,35:1
Частота кадров : 25,000 кадров/сек
Цветовое пространство : YUV
Субдискретизация насыщенности : 4:2:0
Битовая глубина : 8 бит
Тип развёртки : Прогрессивная
Метод сжатия : С потерями
Бит/(Пиксели*Кадры) : 0.329
Размер потока : 576 Мбайт (93%)
Библиотека кодирования : XviD 1.2.1 (UTC 2008-12-04)

Аудио
Идентификатор : 1
Формат : MPEG Audio
Версия формата : Version 1
Профиль формата : Layer 3
Настройки формата : Joint stereo / MS Stereo
Идентификатор кодека : 55
Идентификатор кодека/Подсказка : MP3
Продолжительность : 44 м. 44 с.
Вид битрейта : Постоянный
Битрейт : 128 Кбит/сек
Каналы : 2 канала
Частота : 48,0 КГц
Частота кадров : 41,667 кадра/сек (1152 SPF)
Метод сжатия : С потерями
Размер потока : 41,0 Мбайт (7%)
Выравнивание : Соединение по промежуткам
Продолжительность промежутка : 40 мс. (1,00 видеокадр)
Время предзагрузки промежутка : 504 мс.
Библиотека кодирования : LAME3.99r
Настройки программы : -m j -V 4 -q 9 -lowpass 17 -b 128

pb.wtf



Скачать Рыжик через торрент https://i106.fastpic.ru/big/2019/0825/8f/578bd3a2b1832d4ab570ae32885b8d8f.jpg Скачать фильм Рыжик через торрент бесплантно в хорошем качестве Описание: В маленьком поселке Тоня Рыжикова влюбляется без памяти в Евгения. По совету подруги Тоня приезжает к любимому в большой город. ... 10 10 4
Торрент: Зарегистрирован [2019-08-25 18:52] · скачан: 51 раз
Статус: √ проверено
Размер: 2.37 GB
Как cкачать? Как скачать Рыжик через торрент | qTorrent

28-11-2019 20:33  

Отключить всю рекламу на сайте

    Дорогой пользователь! Огромная просьба, поблагодарите релизера, оцените раздачу и оставьте свои комментарий, если Вы скачали Рыжик через торрент бесплатно! Внесите свою лепту в развитие PiratBit!
    Комментировать посты могут только пользователи прошедшие не сложную регистрацию
    Показать сообщения:    

    Рыжик через торрент
    Скачать бесплатно Рыжик
    Рыжик скачать торрент
    Рыжик смотреть онлайн
    Cкачать фильм Рыжик бесплатно
    Рыжик скачать торрент в хорошем качестве
    Рыжик смотреть онлайн бесплатно в хорошем качестве


    Вы не можете начинать темы
    Вы не можете отвечать на сообщения
    Вы не можете редактировать свои сообщения
    Вы не можете удалять свои сообщения
    Вы не можете голосовать в опросах
    Вы не можете прикреплять файлы к сообщениям
    Вы можете скачивать файлы