Ссылка на приватное зеркало всего за 1$. Внимание количество ограничено!!!

OK

1+1

iTunes

мы

OK

1

WEB-DLRip

Джокер

Пифагор

Ведьмак / The Witcher сериал

iTunes

ПШазам

ОК

Оно 2

iTunes

30
pack

Вам бонус

ВАЖНО

!!Акция!!

Alien_RageХит недели

RePack

Resident Evil 21

ИГРА 18+

pack

RePack

jed

RePack

fifa19

RePack

Assassins Creed: Odyssey

RePack

NEED FOR SPEED™ PAYBACK

4 сезон

9 сезон

Бесстыжие 9 сезон

Все сериалы

все сериалы на PB.wtf

RePack

FAR CRY 5
  

Они никогда не станут старше / They Shall Not Grow Old (Питер Джексон) [2018, Документальный, военный, исторический, BDRip-AVC] MVO [Jaskier, HDRezka Studio] - ExKinoRay pb.wtf

Они никогда не станут старше через торрент pb.wtf

Раздают: 46 [ 332 KB/s ] Качают: 3 [ 269 KB/s ]
Размер: 2.93 GB | Добавлен: 5 мес. назад | Торрент скачан:42 раза
Скачать  

25-08-2019 19:30 Они никогда не станут старше Скачать торрент  

Информация о фильме
Название: Они никогда не станут старше
Оригинальное: They Shall Not Grow Old
Год выхода: 2018
Жанр: Документальный, военный, исторический
Режиссер: Питер Джексон

Описание:
Они были солдатами. И молодыми. Им не повезло: их лучшие годы сожрала Первая мировая — первая глобальная катастрофа ХХ века, у западных историков получившая название Великая война. Но их лица и улыбки остались в кадрах хроники. Документальный фильм о Первой мировой с ранее никогда не публиковавшимися съёмками, в ознаменование столетней годовщины окончания войны.

rating

Страна: Великобритания, Новая Зеландия
Продолжительность: 01:39:19
Перевод: Профессиональный многоголосый | Jaskier
Профессиональный многоголосый | HDRezka Studio

Формат: MKV
Качество: BDRip-AVC
Видео: MPEG-4 AVC, 1024x552 (1.85:1), 23.976 fps, 3320 Kbps, 0.245 bit/pixel
Аудио #01: 48 kHz, AC3, 2.0, 192 Kbps | Jaskier | RUS |
Аудио #01: 48 kHz, AC3, 2.0, 256 Kbps | HDRezka Studio | RUS |
Аудио #03: 48 kHz, AC3, 5.1, 448 Kbps | Оригинал | ENG |
Субтитры: Русские, английские
General
Unique ID : 183982090730183525444458683351747168746 (0x8A69A96A34B3EC5DA5F38D260BD689EA)
Complete name : F:\They.Shall.Not.Grow.Old.2018.BDrip.AVC.ExKinoRay.mkv
Format : Matroska
Format version : Version 2
File size : 2.93 GiB
Duration : 1 h 39 min
Overall bit rate : 4 217 kb/s
Movie name : They Shall Not Grow Old 2018 from ExKinoRay
Encoded date : UTC 2019-07-23 22:11:59
Writing application : mkvmerge v5.6.0 ('Kenya Kane') built on May 27 2012 16:44:04
Writing library : libebml v1.2.3 + libmatroska v1.3.0

Video
ID : 1
Format : AVC
Format/Info : Advanced Video Codec
Format profile : High@L4.1
Format settings, CABAC : Yes
Format settings, ReFrames : 12 frames
Codec ID : V_MPEG4/ISO/AVC
Duration : 1 h 39 min
Bit rate : 3 320 kb/s
Width : 1 024 pixels
Height : 552 pixels
Display aspect ratio : 1.85:1
Frame rate mode : Constant
Frame rate : 23.976 (23976/1000) FPS
Color space : YUV
Chroma subsampling : 4:2:0
Bit depth : 8 bits
Scan type : Progressive
Bits/(Pixel*Frame) : 0.245
Stream size : 2.25 GiB (77%)
Title : Enigma
Writing library : x264 core 152 r2851 ba24899
Encoding settings : cabac=1 / ref=12 / deblock=1:-2:-2 / analyse=0x3:0x113 / me=umh / subme=10 / psy=1 / psy_rd=0.98:0.05 / mixed_ref=1 / me_range=32 / chroma_me=1 / trellis=2 / 8x8dct=1 / cqm=0 / deadzone=21,11 / fast_pskip=0 / chroma_qp_offset=-3 / threads=12 / lookahead_threads=3 / sliced_threads=0 / nr=0 / decimate=0 / interlaced=0 / bluray_compat=0 / constrained_intra=0 / bframes=12 / b_pyramid=2 / b_adapt=2 / b_bias=0 / direct=3 / weightb=1 / open_gop=0 / weightp=2 / keyint=240 / keyint_min=23 / scenecut=40 / intra_refresh=0 / rc=2pass / mbtree=0 / bitrate=3320 / ratetol=1.0 / qcomp=0.60 / qpmin=0 / qpmax=51 / qpstep=4 / cplxblur=20.0 / qblur=0.5 / ip_ratio=1.30 / pb_ratio=1.20 / aq=3:0.80
Language : English
Default : Yes
Forced : No
Color range : Limited
Color primaries : BT.709
Transfer characteristics : BT.709
Matrix coefficients : BT.709

Audio #1
ID : 2
Format : AC-3
Format/Info : Audio Coding 3
Mode extension : CM (complete main)
Format settings, Endianness : Big
Codec ID : A_AC3
Duration : 1 h 39 min
Bit rate mode : Constant
Bit rate : 192 kb/s
Channel(s) : 2 channels
Channel positions : Front: L R
Sampling rate : 48.0 kHz
Frame rate : 31.250 FPS (1536 spf)
Compression mode : Lossy
Stream size : 136 MiB (5%)
Title : MVO (Jaskier)
Language : Russian
Default : Yes
Forced : No

Audio #2
ID : 3
Format : AC-3
Format/Info : Audio Coding 3
Mode extension : CM (complete main)
Format settings, Endianness : Big
Codec ID : A_AC3
Duration : 1 h 39 min
Bit rate mode : Constant
Bit rate : 256 kb/s
Channel(s) : 2 channels
Channel positions : Front: L R
Sampling rate : 48.0 kHz
Frame rate : 31.250 FPS (1536 spf)
Compression mode : Lossy
Stream size : 182 MiB (6%)
Title : MVO (HDrezka Studio)
Language : Russian
Default : No
Forced : No

Audio #3
ID : 4
Format : AC-3
Format/Info : Audio Coding 3
Mode extension : CM (complete main)
Format settings, Endianness : Big
Codec ID : A_AC3
Duration : 1 h 39 min
Bit rate mode : Constant
Bit rate : 448 kb/s
Channel(s) : 6 channels
Channel positions : Front: L C R, Side: L R, LFE
Sampling rate : 48.0 kHz
Frame rate : 31.250 FPS (1536 spf)
Compression mode : Lossy
Stream size : 318 MiB (11%)
Language : English
Default : No
Forced : No

Text #1
ID : 5
Format : UTF-8
Codec ID : S_TEXT/UTF8
Codec ID/Info : UTF-8 Plain Text
Title : G.L. Youki
Language : Russian
Default : No
Forced : No

Text #2
ID : 6
Format : UTF-8
Codec ID : S_TEXT/UTF8
Codec ID/Info : UTF-8 Plain Text
Language : English
Default : No
Forced : No

Menu
00:00:00.000 : en:Chapter 1
00:09:15.680 : en:Chapter 2
00:16:16.308 : en:Chapter 3
00:23:59.563 : en:Chapter 4
00:36:45.870 : en:Chapter 5
00:44:58.904 : en:Chapter 6
00:51:56.029 : en:Chapter 7
01:01:07.372 : en:Chapter 8
01:08:36.028 : en:Chapter 9
01:15:37.866 : en:Chapter 10
01:23:25.375 : en:Chapter 11
01:32:04.352 : en:Chapter 12


Релиз от:

Автор релиза: pb.wtf



Скачать Они никогда не станут старше через торрент https://i6.imageban.ru/out/2019/02/03/7a61565923e337a9d0bfcd3bf1ac87de.jpg Скачать фильм Они никогда не станут старше через торрент бесплантно в хорошем качестве Описание:Они были солдатами. И молодыми. Им не повезло: их лучшие годы сожрала Первая мировая — первая глобальная катастрофа ХХ века, у ... 5 10 1
Info! Золотая раздача, скачанное не засчитывается.
Торрент: Зарегистрирован [2019-08-25 19:30] · скачан: 42 раз
Статус: √ проверено
Размер: 2.93 GB
Как cкачать? Как скачать Они никогда не станут старше через торрент | qTorrent

28-11-2019 20:33  

Отключить всю рекламу на сайте

    Дорогой пользователь! Огромная просьба, поблагодарите релизера, оцените раздачу и оставьте свои комментарий, если Вы скачали Они никогда не станут старше через торрент бесплатно! Внесите свою лепту в развитие PiratBit!
    Комментировать посты могут только пользователи прошедшие не сложную регистрацию
    Показать сообщения:    

    Они никогда не станут старше через торрент
    Скачать бесплатно Они никогда не станут старше
    Они никогда не станут старше скачать торрент
    Они никогда не станут старше смотреть онлайн
    Cкачать фильм Они никогда не станут старше бесплатно
    Они никогда не станут старше скачать торрент в хорошем качестве
    Они никогда не станут старше смотреть онлайн бесплатно в хорошем качестве


    Вы не можете начинать темы
    Вы не можете отвечать на сообщения
    Вы не можете редактировать свои сообщения
    Вы не можете удалять свои сообщения
    Вы не можете голосовать в опросах
    Вы не можете прикреплять файлы к сообщениям
    Вы можете скачивать файлы