Ссылка на приватное зеркало нашего сайта всего за 1$. Внимание количество ограничено!!!

2 сезон

iTunes

1 сезон

1

iTunes

iTunes

iTunes

1 сезон

RePack

30

ИГРА 18+

pack

ВАЖНО

!!Акция!!

Alien_RageХит недели

RePack

MK11
pack

Забери бонус

RePack

jed

!!Акция!!

Alien_Rage

RePack

fifa19

RePack

Assassins Creed: Odyssey

RePack

NEED FOR SPEED™ PAYBACK

4 сезон

9 сезон

Бесстыжие 9 сезон

Все сериалы

все сериалы на PB.wtf

RePack

FAR CRY 5
  

Большой кошачий побег / Mao yu tao hua yuan / Cats and Peachtopia (Гэри Ван) [2018, мультфильм, приключения, комедия, семейный, WEB-DLRip-AVC] [Локализованная версия] DUB [iTunes] - ExKinoRay pb.wtf

Большой кошачий побег через торрент pb.wtf

Раздают: 6 [ 0 KB/s ]
Размер: 1.3 GB | Добавлен: 1 год 1 мес. назад | Торрент скачан:207 раз
Скачать  

25-08-2019 21:55 Большой кошачий побег Скачать торрент  

Информация о фильме
Название: Большой кошачий побег
Оригинальное название: Mao yu tao hua yuan / Cats & Peachtopia
Год выхода: 2018
Жанр: мультфильм, приключения, комедия, семейный
Режиссер: Гэри Ван
В ролях: Ян Яньдо, Эмиль Чау, Чэнь Линьшэн

Описание: Большинство домашних котов, как наш герой Пухляш, привыкли довольствоваться жизнью в теплой и уютной квартире. Но его сын, рыжий котенок Шустрик, не из таких. Ему вечно не сидится на месте, и он очень хочет путешествовать. Мечтая однажды отправиться в удивительную Долину Розовых Снов, он сооружает летательный аппарат и улетает на нем через окно. Ленивому и неповоротливому Пухляшу только и остается, что отправиться на его поиски вместе с другом волнистым попугаем, ведь жизнь большого города таит немало опасностей для маленького котенка. Всех троих впереди ждет немало приключений и важных открытий!

rating

Страна: Китай
Продолжительность: 01:23:21
Перевод: Профессиональный (полное дублирование) [iTunes]

Формат: MKV
Качество: WEB-DLRip-AVC
Видео: MPEG-4 AVC, 1024x428 (2.40:1), 25.000 fps, 1850 Kbps, 0.169 bit/pixel
Аудио: 48 kHz, AC3, 5.1, 384 Kbps | iTunes | RUS |
General
Unique ID : 182997686269106964523220299091588895857 (0x89AC128718FAAE38A86E0E6A884B5471)
Complete name : F:\Beg.Kotov.2018.AVC.ExKinoRay.mkv
Format : Matroska
Format version : Version 2
File size : 1.30 GiB
Duration : 1 h 23 min
Overall bit rate : 2 234 kb/s
Movie name : Большой кошачий побег 2018 from ExKinoRay
Encoded date : UTC 2019-08-25 20:55:21
Writing application : mkvmerge v5.6.0 ('Kenya Kane') built on May 27 2012 16:44:04
Writing library : libebml v1.2.3 + libmatroska v1.3.0

Video
ID : 1
Format : AVC
Format/Info : Advanced Video Codec
Format profile : High@L4.1
Format settings, CABAC : Yes
Format settings, ReFrames : 11 frames
Codec ID : V_MPEG4/ISO/AVC
Duration : 1 h 23 min
Bit rate : 1 850 kb/s
Width : 1 024 pixels
Height : 428 pixels
Display aspect ratio : 2.40:1
Frame rate mode : Constant
Frame rate : 25.000 FPS
Color space : YUV
Chroma subsampling : 4:2:0
Bit depth : 8 bits
Scan type : Progressive
Bits/(Pixel*Frame) : 0.169
Stream size : 1.05 GiB (81%)
Title : Enigma
Writing library : x264 core 152 r2851 ba24899
Encoding settings : cabac=1 / ref=11 / deblock=1:-3:-3 / analyse=0x3:0x113 / me=umh / subme=10 / psy=1 / psy_rd=1.05:0.10 / mixed_ref=1 / me_range=32 / chroma_me=1 / trellis=2 / 8x8dct=1 / cqm=0 / deadzone=21,11 / fast_pskip=0 / chroma_qp_offset=-3 / threads=12 / lookahead_threads=3 / sliced_threads=0 / nr=0 / decimate=0 / interlaced=0 / bluray_compat=0 / constrained_intra=0 / bframes=10 / b_pyramid=2 / b_adapt=2 / b_bias=0 / direct=3 / weightb=1 / open_gop=0 / weightp=2 / keyint=240 / keyint_min=24 / scenecut=40 / intra_refresh=0 / rc=2pass / mbtree=0 / bitrate=1850 / ratetol=1.0 / qcomp=0.60 / qpmin=0 / qpmax=51 / qpstep=4 / cplxblur=20.0 / qblur=0.5 / ip_ratio=1.30 / pb_ratio=1.20 / aq=3:1.00
Language : English
Default : Yes
Forced : No
Color range : Limited
Color primaries : BT.709
Transfer characteristics : BT.709
Matrix coefficients : BT.709

Audio
ID : 2
Format : AC-3
Format/Info : Audio Coding 3
Mode extension : CM (complete main)
Format settings, Endianness : Big
Codec ID : A_AC3
Duration : 1 h 23 min
Bit rate mode : Constant
Bit rate : 384 kb/s
Channel(s) : 6 channels
Channel positions : Front: L C R, Side: L R, LFE
Sampling rate : 48.0 kHz
Frame rate : 31.250 FPS (1536 spf)
Compression mode : Lossy
Stream size : 229 MiB (17%)
Title : iTunes
Language : Russian
Default : Yes
Forced : No


Релиз от:

Автор релиза: pb.wtf



Скачать Большой кошачий побег через торрент https://b.radikal.ru/b33/1904/b1/0faf0aa4a625.jpg Скачать фильм Большой кошачий побег через торрент бесплантно в хорошем качестве Описание: Большинство домашних котов, как наш герой Пухляш, привыкли довольствоваться жизнью в теплой и уютной квартире. Но его сын, ... 10 10 3
Info! Золотая раздача, скачанное не засчитывается.
Торрент: Зарегистрирован [2019-08-25 21:55] · скачан: 207 раз
Статус: √ проверено
Размер: 1.3 GB
Как cкачать? Как скачать Большой кошачий побег через торрент | qTorrent

28-11-2019 20:33  

Отключить всю рекламу на сайте

    Дорогой пользователь! Огромная просьба, поблагодарите релизера, оцените раздачу и оставьте свои комментарий, если Вы скачали Большой кошачий побег через торрент бесплатно! Внесите свою лепту в развитие PiratBit!
    Комментировать посты могут только пользователи прошедшие не сложную регистрацию
    Показать сообщения:    

    Большой кошачий побег через торрент
    Скачать бесплатно Большой кошачий побег
    Большой кошачий побег скачать торрент
    Большой кошачий побег смотреть онлайн
    Cкачать фильм Большой кошачий побег бесплатно
    Большой кошачий побег скачать торрент в хорошем качестве
    Большой кошачий побег смотреть онлайн бесплатно в хорошем качестве


    Вы не можете начинать темы
    Вы не можете отвечать на сообщения
    Вы не можете редактировать свои сообщения
    Вы не можете удалять свои сообщения
    Вы не можете голосовать в опросах
    Вы не можете прикреплять файлы к сообщениям
    Вы можете скачивать файлы