Доктор Стрэндж

Лицензия

Добыча

Дубляж

Уэнсдэй

1 сезон

Тор

Дубляж

В эфире

Дубляж

Там, где раки поют

MVO

Властелин колец

1 сезон

Deluxe

pack

Рекомендуем

30

Пиратка

ВАЖНО

ВАЖНО

Ghostwire

Пиратка

jed

RePack

nioh2

RePack

RDR2

RePack

NEED FOR SPEED™ PAYBACK

RePack

скачать торрент

Кинопоиск HD

Острые козырьки 6 сезон

6 сезон

FAR CRY 6

RePack

скачать торрент

Лицензия

скачать торрент

MVO

1

1 сезон

скачать торрент

1 сезон

скачать торрент

Лицензия

  

Золотая перчатка / Der goldene Handschuh (Фатих Акин) [2019, Триллер, BD Remux 1080p] Дубляж [iTunes]

Золотая перчатка через торрент pb.wtf

Размер: 28.57 GB | Добавлен: 3 года 3 мес. назад | Торрент скачан:12 раз
Смотреть онлайн | Скачать   

26-08-2019 11:16 Золотая перчатка Скачать торрент  

Золотая перчатка / Der goldene Handschuh
Год выпуска: 2019
Страна: Германия, Франция
Жанр: Триллер
Продолжительность: 01:49:58
Перевод: Дублированный | iTunes
Субтитры: отсутствуют

Режиссер: Фатих Акин

rating

В ролях: Адам Боусдукс, Йонас Дасслер, Марк Хоземанн, Маргарете Тизель, Катя Штудт, Мартина Эйтнер, Харк Бом, Тристан Гёбель, Том Хосбек, Филипп Балтус

Описание: Западная Германия, 70-е годы. Фриц Хонка - типичный неудачник средних лет, так ничего и не достигший в жизни. Он коротает унылые вечера в кабаке «Золотая перчатка». Здесь, в компании себе подобных, он дурманит себя алкоголем и ищет близости с одинокими женщинами, безвозвратно утратившими свою молодость и достоинство. Фриц завлекает эти потерянные души в свое холостяцкое логово. В этом затхлом мирке в безобидном для окружающих уродце просыпается монстр...

Качество: BD Remux 1080p
Формат: MKV

Видео: MPEG-4 AVC, 31.8 Мбит/с, 1920x1080, 23.976 кадр/с
Аудио#1: AC-3, 6 ch, 384 Kbps | Русский
Аудио#2: TrueHD, 8.0 ch, 4300 Kbps | Немецкий
Аудио#3: AC-3, 6 ch, 640 Kbps | Немецкий
скриншот  скриншот  скриншот  скриншот  

General
Unique ID : 213709524400350723899914708462828397451 (0xA0C6F50DF70A538100B113C257FA238B)
Complete name : /Volumes/Promise Pegasus/Der.goldene.Handschuh.BDRemux.1080p.NNMClub.pk .mkv
Format : Matroska
Format version : Version 4
File size : 28.6 GiB
Duration : 1h 49mn
Overall bit rate mode : Variable
Overall bit rate : 37.2 Mbps
Movie name : Der goldene Handschuh BDRemux 1080p Kosatka
Encoded date : UTC 2019-08-25 15:41:51
Writing application : mkvmerge v37.0.0 ('Leave It') 64-bit
Writing library : libebml v1.3.9 + libmatroska v1.5.2

Video
ID : 1
Format : AVC
Format/Info : Advanced Video Codec
Format profile : [email protected]
Format settings : CABAC / 3 Ref Frames
Format settings, CABAC : Yes
Format settings, ReFrames : 3 frames
Codec ID : V_MPEG4/ISO/AVC
Duration : 1h 49mn
Bit rate mode : Variable
Bit rate : 31.8 Mbps
Maximum bit rate : 33.0 Mbps
Width : 1 920 pixels
Height : 1 080 pixels
Display aspect ratio : 16:9
Frame rate mode : Constant
Frame rate : 23.976 (24000/1001) fps
Color space : YUV
Chroma subsampling : 4:2:0
Bit depth : 8 bits
Scan type : Progressive
Bits/(Pixel*Frame) : 0.640
Stream size : 24.4 GiB (85%)
Language : German
Default : Yes
Forced : No

Audio #1
ID : 2
Format : AC-3
Format/Info : Audio Coding 3
Commercial name : Dolby Digital
Codec ID : A_AC3
Duration : 1h 49mn
Bit rate mode : Constant
Bit rate : 384 Kbps
Channel(s) : 6 channels
Channel layout : L R C LFE Ls Rs
Sampling rate : 48.0 KHz
Frame rate : 31.250 fps (1536 SPF)
Bit depth : 16 bits
Compression mode : Lossy
Stream size : 302 MiB (1%)
Title : Russian iTunes
Language : Russian
Service kind : Complete Main
Default : Yes
Forced : No

Audio #2
ID : 3
Format : MLP FBA 16-ch
Format/Info : Meridian Lossless Packing FBA with 16-channel presentation
Commercial name : Dolby TrueHD with Dolby Atmos
Codec ID : A_TRUEHD
Duration : 1h 49mn
Bit rate mode : Variable
Bit rate : 4 300 Kbps
Maximum bit rate : 6 672 Kbps
Channel(s) : 8 channels
Channel layout : L R C LFE Ls Rs Lb Rb
Sampling rate : 48.0 KHz
Frame rate : 1 200.000 fps (40 SPF)
Compression mode : Lossless
Stream size : 3.30 GiB (12%)
Title : German Original TrueHD
Language : German
Default : No
Forced : No
Number of dynamic objects : 11
Bed channel count : 1 channel
Bed channel configuration : LFE

Audio #3
ID : 4
Format : AC-3
Format/Info : Audio Coding 3
Commercial name : Dolby Digital
Codec ID : A_AC3
Duration : 1h 49mn
Bit rate mode : Constant
Bit rate : 640 Kbps
Channel(s) : 6 channels
Channel layout : L R C LFE Ls Rs
Sampling rate : 48.0 KHz
Frame rate : 31.250 fps (1536 SPF)
Bit depth : 16 bits
Compression mode : Lossy
Stream size : 503 MiB (2%)
Title : German Original AC-3
Language : German
Service kind : Complete Main
Default : No
Forced : No

Menu
00:00:00.000 : en:Chapter 01
00:10:27.960 : en:Chapter 02
00:19:58.030 : en:Chapter 03
00:28:27.539 : en:Chapter 04
00:35:34.590 : en:Chapter 05
00:45:34.398 : en:Chapter 06
00:55:26.364 : en:Chapter 07
01:02:13.187 : en:Chapter 08
01:12:06.405 : en:Chapter 09
01:22:50.006 : en:Chapter 10
01:33:58.966 : en:Chapter 11
01:42:12.292 : en:Chapter 12




Скачать Золотая перчатка через торрент https://d.radikal.ru/d18/1906/ae/05232bb687b9.jpg Скачать, смотреть онлайн Золотая перчатка бесплантно в хорошем качестве Описание: Западная Германия, 70-е годы. Фриц Хонка - ичный неудачник средних лет, так ничего и не достигший в жизни. Он коротает унылые ... 7.8 10 4
Торрент: Зарегистрирован [2019-08-26 11:16] · скачан: 12 раз
Статус: √ проверено
Размер: 28.57 GB
Как cкачать? Как скачать Золотая перчатка через торрент | UTorrent

% Раздел Тема Автор DL S | L
Фильмы [HD 720p, 1080p] (Хороший звук DUB, MVO) [ 10.19 GB ] Золотая перчатка / Der goldene Handschuh | iTunes | 1080p bober100 Скачать
1 | 0
Фильмы 2019-2020 [DVDrip, WEB-DLRip, HDrip] (DUB, MVO) [ 1.41 GB ] Золотая перчатка / Der goldene Handschuh | iTunes | BDRip bober100 Скачать
1 | 0
Фильмы (WEB-DL 720p, 1080p) [ 3.72 GB ] Золотая перчатка / Der goldene Handschuh | iTunes | 720p bober100 Скачать
1 | 0

28-11-2019 20:33  


Отключить вcю реклaмy на сайте, в т.ч. и в плеере онлайн просмотра!

    Дорогой пользователь! Огромная просьба, поблагодарите релизера, оцените раздачу и оставьте свои комментарий, если Вы скачали Золотая перчатка через торрент бесплатно!!
    Комментировать посты могут только пользователи прошедшие не сложную регистрацию
    Показать сообщения:    


    Золотая перчатка через торрент
    Скачать бесплатно Золотая перчатка
    Золотая перчатка скачать торрент
    Золотая перчатка смотреть онлайн
    Cкачать фильм Золотая перчатка бесплатно
    Золотая перчатка скачать торрент в хорошем качестве
    Золотая перчатка смотреть онлайн бесплатно в хорошем качестве
    Вы не можете начинать темы
    Вы не можете отвечать на сообщения
    Вы не можете редактировать свои сообщения
    Вы не можете удалять свои сообщения
    Вы не можете голосовать в опросах
    Вы не можете прикреплять файлы к сообщениям
    Вы можете скачивать файлы
    Золотая перчатка / Der goldene Handschuh [2019, Триллер, BD Remux 1080p] Дубляж [iTunes] смотреть онлайн, скачать торрент picoco.icu